<?xml version="1.0" standalone="no"?>
<!DOCTYPE svg PUBLIC "-//W3C//DTD SVG 1.1//EN" "http://www.w3.org/Graphics/SVG/1.1/DTD/svg11.dtd" >
<svg xmlns="http://www.w3.org/2000/svg" xmlns:xlink="http://www.w3.org/1999/xlink" version="1.1">
<metadata>
Created by FontForge 20170731 at Sat Dec  5 01:01:55 2015
 By Aleksey,,,
(c)2015 Now Typeface is a trademark of Alfredo Marco Pradil. All rights reserved.
</metadata>
<defs>
<font id="Now-Regular" horiz-adv-x="0" >
  <font-face 
    font-family="Now"
    font-weight="400"
    font-stretch="normal"
    units-per-em="800"
    panose-1="0 0 5 0 0 0 0 0 0 0"
    ascent="640"
    descent="-160"
    x-height="400"
    cap-height="600"
    bbox="-602 -243 817 936"
    underline-thickness="50"
    underline-position="-200"
    unicode-range="U+0020-FB02"
  />
<missing-glyph horiz-adv-x="483" 
d="M79 0v600h325v-600h-325zM127 48h229v504h-229v-504z" />
    <glyph glyph-name="fi" unicode="fi" horiz-adv-x="499" 
d="M158 615v-215h107v-60h-107v-340h-62v340h-67v60h67v223q0 47 34 80t81 33q33 0 53 -13v-48l-46 1q-25 0 -42.5 -17t-17.5 -44zM431 517q0 -17 -13 -29.5t-30 -12.5q-18 0 -31 12.5t-13 29.5q0 18 13 30.5t31 12.5t30.5 -12.5t12.5 -30.5zM357 0v400h62v-400h-62z" />
    <glyph glyph-name="fl" unicode="fl" horiz-adv-x="484" 
d="M158 615v-215h107v-60h-107v-340h-62v340h-67v60h67v223q0 47 34 80t81 33q33 0 53 -13v-48l-46 1q-25 0 -42.5 -17t-17.5 -44zM349 736h62v-736h-62v736z" />
    <glyph glyph-name="f_t.liga" unicode="ft" horiz-adv-x="526" 
d="M493 340h-107v-227q0 -27 17.5 -44t42.5 -17h46v-47q-20 -13 -53 -13q-47 0 -81 33t-34 80v235h-166v-340h-62v340h-67v60h67v223q0 47 34 80t81 33q33 0 53 -13v-48l-46 1q-25 0 -42.5 -17t-17.5 -44v-215h166v174h62v-174h107v-60z" />
    <glyph glyph-name=".notdef" horiz-adv-x="483" 
d="M79 0v600h325v-600h-325zM127 48h229v504h-229v-504z" />
    <glyph glyph-name=".null" 
 />
    <glyph glyph-name="nonmarkingreturn" horiz-adv-x="266" 
 />
    <glyph glyph-name="space" unicode=" " horiz-adv-x="241" 
 />
    <glyph glyph-name="exclam" unicode="!" horiz-adv-x="244" 
d="M97 171l-6 501h62l-7 -501h-49zM122 -8q-17 0 -30 13t-13 30q0 18 13 30.5t30 12.5t30 -12.5t13 -30.5q0 -17 -13 -30t-30 -13z" />
    <glyph glyph-name="quotedbl" unicode="&#x22;" horiz-adv-x="348" 
d="M85 341l-6 267h59l-7 -267h-46zM217 341l-7 267h60l-7 -267h-46z" />
    <glyph glyph-name="numbersign" unicode="#" horiz-adv-x="631" 
d="M152 0l20 141h-112l6 47h113l28 189h-114l8 46h111l21 141h45l-19 -141h153l20 141h46l-20 -141h113l-7 -46h-112l-27 -189h112l-6 -47h-112l-22 -141h-45l20 141h-154l-19 -141h-47zM226 188h152l28 189h-154z" />
    <glyph glyph-name="dollar" unicode="$" horiz-adv-x="438" 
d="M409 158q0 -68 -42 -111.5t-109 -52.5v-11h-61v11q-57 6 -102 38t-66 82l58 34q29 -76 110 -90v6h61v-5q39 8 63 33t24 64q0 35 -21.5 60.5t-54 39t-70.5 31t-70.5 34.5t-54 50.5t-21.5 78.5q0 66 40.5 108t103.5 49v12h61v-14q77 -15 122 -72l-50 -42q-25 36 -72 49v-2
h-61v4q-36 -6 -58 -28t-22 -59q0 -33 21.5 -57.5t54 -37.5t70.5 -30.5t70.5 -35.5t54 -53t21.5 -83z" />
    <glyph glyph-name="percent" unicode="%" horiz-adv-x="599" 
d="M159 360q-45 0 -76.5 36t-31.5 87q0 52 31.5 88.5t76.5 36.5q44 0 75.5 -36.5t31.5 -88.5q0 -51 -31.5 -87t-75.5 -36zM61 0l412 600h65l-412 -600h-65zM159 408q24 0 41.5 22t17.5 53q0 32 -17.5 54.5t-41.5 22.5t-41.5 -22.5t-17.5 -54.5q0 -31 17.5 -53t41.5 -22z
M441 -8q-45 0 -76.5 36.5t-31.5 88.5q0 51 31.5 87t76.5 36t76 -36t31 -87q0 -52 -31 -88.5t-76 -36.5zM441 40q23 0 40.5 22.5t17.5 54.5q0 31 -17 53t-41 22t-41.5 -22t-17.5 -53q0 -32 17.5 -54.5t41.5 -22.5z" />
    <glyph glyph-name="ampersand" unicode="&#x26;" horiz-adv-x="543" 
d="M504 334v-61h-56v-103q0 -74 -50 -122t-130 -48q-79 0 -133 46.5t-54 117.5q0 44 21 81.5t56 60.5q-72 52 -72 139q0 67 45.5 111t110.5 44h142v-64h-131q-44 0 -74 -25t-30 -69q0 -47 33 -77.5t82 -30.5h122v101h62v-101h56zM267 55q54 0 86.5 32.5t32.5 82.5v103h-135
q-47 0 -79.5 -31t-32.5 -76q0 -49 37 -80t91 -31z" />
    <glyph glyph-name="quotesingle" unicode="'" horiz-adv-x="216" 
d="M85 373l-6 235h59l-7 -235h-46z" />
    <glyph glyph-name="parenleft" unicode="(" horiz-adv-x="301" 
d="M273 -232q-46 3 -83 31.5t-66 84.5t-45 149t-16 217q0 242 57.5 360.5t152.5 125.5v-45q-71 -10 -113 -116t-42 -325q0 -217 42 -322t113 -115v-45z" />
    <glyph glyph-name="parenright" unicode=")" horiz-adv-x="301" 
d="M28 -232v45q71 10 113 115t42 322q0 219 -42 325t-113 116v45q95 -7 152.5 -125.5t57.5 -360.5q0 -124 -16 -217t-45 -149t-66 -84.5t-83 -31.5z" />
    <glyph glyph-name="asterisk" unicode="*" horiz-adv-x="282" 
d="M110 412l-32 19l42 60l-73 -7v37l73 -7l-42 60l32 19l31 -65l31 65l32 -19l-42 -60l73 7v-37l-73 7l42 -60l-32 -19l-31 65z" />
    <glyph glyph-name="plus" unicode="+" horiz-adv-x="654" 
d="M299 0v219h-220v58h220v219h57v-219h219v-58h-219v-219h-57z" />
    <glyph glyph-name="comma" unicode="," horiz-adv-x="168" 
d="M57 -124h-52l105 225h70z" />
    <glyph glyph-name="hyphen" unicode="-" horiz-adv-x="361" 
d="M40 178v60h280v-60h-280z" />
    <glyph glyph-name="period" unicode="." horiz-adv-x="191" 
d="M95 -8q-22 0 -38.5 16.5t-16.5 38.5t16.5 38.5t38.5 16.5q23 0 39 -16t16 -39t-16 -39t-39 -16z" />
    <glyph glyph-name="slash" unicode="/" horiz-adv-x="544" 
d="M-15 -240l514 976h60l-514 -976h-60z" />
    <glyph glyph-name="zero" unicode="0" horiz-adv-x="557" 
d="M278 -8q-101 0 -158 86t-57 222t57 222t158 86q102 0 159 -86t57 -222t-57 -222t-159 -86zM279 56q73 0 112 67t39 177t-39 177t-112 67t-112 -67t-39 -177t39 -177t112 -67z" />
    <glyph glyph-name="one" unicode="1" horiz-adv-x="307" 
d="M139 0v536h-100v64h164v-600h-64z" />
    <glyph glyph-name="two" unicode="2" horiz-adv-x="491" 
d="M159 64h287v-64h-432l251 275q57 64 75 95t18 63q0 53 -31.5 82t-79.5 30q-49 1 -81.5 -30.5t-31.5 -83.5h-70q-1 79 53 129t133 49q74 -1 124.5 -46t52.5 -119q2 -50 -21 -90.5t-95 -120.5z" />
    <glyph glyph-name="three" unicode="3" horiz-adv-x="491" 
d="M237 354q80 0 135 -51t55 -128q0 -76 -54.5 -129.5t-132.5 -53.5q-77 0 -131 51t-54 123l67 1q0 -47 35 -79.5t83 -32.5q51 0 86.5 36t35.5 87q0 49 -35 80.5t-86 31.5h-144l191 247h-233v63h358l-192 -246h16z" />
    <glyph glyph-name="four" unicode="4" horiz-adv-x="497" 
d="M442 190v-64h-63v-126h-64v126h-290l275 474h79v-410h63zM124 190h191v336z" />
    <glyph glyph-name="five" unicode="5" horiz-adv-x="503" 
d="M255 397q83 0 137.5 -57.5t54.5 -143.5q0 -89 -58.5 -146.5t-154.5 -57.5q-56 0 -109 21t-83 56l8 76h6q62 -89 176 -89q71 0 111 39t40 99q0 61 -40.5 100t-100.5 39q-69 0 -115 -48l-56 33l34 280h307v-64h-250l-22 -173q49 36 115 36z" />
    <glyph glyph-name="six" unicode="6" horiz-adv-x="530" 
d="M475 207q4 -85 -55 -146.5t-145 -66.5q-87 -4 -151 53t-68 141q-4 76 51 145l212 267h80l-176 -210q23 9 50 9q73 1 135.5 -53.5t66.5 -138.5zM274 56q64 4 103 46.5t35 103.5q-4 64 -48 103.5t-107 35.5q-64 -4 -103 -48t-35 -108q4 -62 47.5 -99.5t107.5 -33.5z" />
    <glyph glyph-name="seven" unicode="7" horiz-adv-x="466" 
d="M41 600h399v-42l-313 -558h-75l307 536h-318v64z" />
    <glyph glyph-name="eight" unicode="8" horiz-adv-x="469" 
d="M321 334q48 -22 76.5 -65t28.5 -96q0 -76 -55.5 -128.5t-136.5 -52.5q-80 0 -135 52.5t-55 128.5q0 53 28.5 96t76.5 65q-71 43 -71 125q0 63 45 106t112 43t111.5 -43t44.5 -106q0 -84 -70 -125zM235 547q-41 0 -69.5 -28.5t-28.5 -69.5q0 -40 28.5 -68t69.5 -28t69 28
t28 68q0 41 -28 69.5t-69 28.5zM234 49q53 0 90 37.5t37 90.5t-37 90t-90 37t-89.5 -37t-36.5 -90t37 -90.5t89 -37.5z" />
    <glyph glyph-name="nine" unicode="9" horiz-adv-x="530" 
d="M475 412q3 -79 -52 -145l-211 -267h-81l176 209q-26 -8 -49 -8q-74 -1 -136 53.5t-66 138.5q-4 85 55 146.5t145 66.5q87 4 150.5 -53t68.5 -141zM274 255q63 4 102 48t35 108q-4 61 -47.5 99t-106.5 34q-64 -4 -103.5 -46.5t-35.5 -103.5q4 -64 48 -103.5t108 -35.5z
" />
    <glyph glyph-name="colon" unicode=":" horiz-adv-x="249" 
d="M124 322q-17 0 -30 12.5t-13 30.5q0 17 13 30t30 13q18 0 31 -13t13 -30q0 -18 -13 -30.5t-31 -12.5zM124 -8q-17 0 -30 12.5t-13 30.5q0 17 13 30t30 13q18 0 31 -13t13 -30q0 -18 -13 -30.5t-31 -12.5z" />
    <glyph glyph-name="semicolon" unicode=";" horiz-adv-x="269" 
d="M138 322q-18 0 -30.5 12.5t-12.5 30.5q0 17 12.5 30t30.5 13q17 0 30 -13t13 -30q0 -18 -13 -30.5t-30 -12.5zM75 -124h-52l105 225h70z" />
    <glyph glyph-name="less" unicode="&#x3c;" horiz-adv-x="599" 
d="M520 522v-53l-390 -197l390 -197v-54l-441 223v57z" />
    <glyph glyph-name="equal" unicode="=" horiz-adv-x="590" 
d="M55 266v43h480v-43h-480zM55 115v43h480v-43h-480z" />
    <glyph glyph-name="greater" unicode="&#x3e;" horiz-adv-x="599" 
d="M79 522l441 -221v-57l-441 -223v54l390 197l-390 197v53z" />
    <glyph glyph-name="question" unicode="?" horiz-adv-x="480" 
d="M224 167v132q0 34 10.5 58t27 35.5t35 23t35 21.5t27 31t10.5 52q0 47 -32.5 78t-84.5 31q-48 0 -80.5 -30.5t-34.5 -77.5h-56q2 70 50 116t121 46q75 0 123.5 -46t48.5 -117q0 -36 -10.5 -63t-26.5 -41t-34.5 -26.5t-34.5 -21.5t-26.5 -24.5t-10.5 -37.5v-139h-57z
M256 -8q-18 0 -31 12.5t-13 30.5q0 17 13 30t31 13q17 0 30 -13t13 -30q0 -18 -13 -30.5t-30 -12.5z" />
    <glyph glyph-name="at" unicode="@" horiz-adv-x="495" 
d="M417 119h-41v30q-13 -17 -35.5 -28t-43.5 -11q-43 0 -72.5 29t-29.5 72q0 42 29.5 71t71.5 29q23 0 45 -11t35 -29v22q0 44 -33.5 75t-81.5 31q-69 0 -117.5 -52t-48.5 -126q0 -76 55 -128.5t133 -52.5h134v-40h-134q-96 0 -162 64t-66 157q0 91 60 154.5t146 63.5
q65 0 110.5 -42.5t45.5 -103.5v-174zM310 146q50 0 66 45v40q-16 45 -66 45q-29 0 -49 -18.5t-20 -46.5t20 -46.5t49 -18.5z" />
    <glyph glyph-name="A" unicode="A" horiz-adv-x="505" 
d="M435 0l-49 140h-267l-49 -140h-70l217 600h71l217 -600h-70zM140 201h225l-112 323z" />
    <glyph glyph-name="B" unicode="B" horiz-adv-x="523" 
d="M369 304q49 -16 78 -54.5t29 -91.5q0 -69 -47.5 -113.5t-116.5 -44.5h-239v600h218q70 0 118 -45t48 -115q0 -96 -88 -136zM393 435q0 44 -31.5 72.5t-77.5 28.5h-148v-205h148q45 0 77 30t32 74zM304 64q45 0 76.5 28.5t31.5 72.5t-31.5 74t-76.5 30h-168v-205h168z" />
    <glyph glyph-name="C" unicode="C" horiz-adv-x="658" 
d="M357 -8q-127 0 -217.5 90t-90.5 218t90.5 218t217.5 90q85 0 156 -42.5t112 -113.5l-55 -31q-31 56 -88 89.5t-125 33.5q-101 0 -172.5 -71t-71.5 -173t71.5 -173t172.5 -71q68 0 125 33.5t88 89.5l55 -31q-41 -71 -112 -113.5t-156 -42.5z" />
    <glyph glyph-name="D" unicode="D" horiz-adv-x="586" 
d="M73 0v600h164q124 0 212 -88t88 -212t-88 -212t-212 -88h-164zM136 64h100q100 0 168.5 67.5t68.5 168.5t-68.5 168.5t-168.5 67.5h-100v-472z" />
    <glyph glyph-name="E" unicode="E" horiz-adv-x="466" 
d="M406 538h-264v-207h230v-62h-230v-207h264v-62h-328v600h328v-62z" />
    <glyph glyph-name="F" unicode="F" horiz-adv-x="424" 
d="M406 538h-264v-207h230v-62h-230v-269h-64v600h328v-62z" />
    <glyph glyph-name="G" unicode="G" horiz-adv-x="719" 
d="M359 318h309v-18q0 -128 -90 -218t-218 -90t-218 90t-90 218t90 218t218 90q85 0 156 -42.5t111 -113.5l-55 -31q-31 56 -88 89.5t-124 33.5q-101 0 -172.5 -71t-71.5 -173t71.5 -173t172.5 -71q90 0 158 57.5t82 144.5h-241v60z" />
    <glyph glyph-name="H" unicode="H" horiz-adv-x="605" 
d="M468 600h64v-600h-64v268h-331v-268h-64v600h64v-268h331v268z" />
    <glyph glyph-name="I" unicode="I" horiz-adv-x="219" 
d="M78 0v600h64v-600h-64z" />
    <glyph glyph-name="J" unicode="J" horiz-adv-x="396" 
d="M336 600v-455q0 -70 -41.5 -111.5t-110.5 -41.5q-63 0 -103.5 35.5t-47.5 96.5l65 14q4 -37 27.5 -59.5t58.5 -22.5q39 0 63.5 26t24.5 70v384h-211v64h275z" />
    <glyph glyph-name="K" unicode="K" horiz-adv-x="513" 
d="M431 0l-251 294h-43v-294h-64v600h64v-246h42l241 246h89l-274 -277l285 -323h-89z" />
    <glyph glyph-name="L" unicode="L" horiz-adv-x="369" 
d="M137 64h223v-64h-287v600h64v-536z" />
    <glyph glyph-name="M" unicode="M" horiz-adv-x="742" 
d="M602 600h67v-600h-63v472l-209 -472h-53l-207 474v-474h-64v600h68l230 -523z" />
    <glyph glyph-name="N" unicode="N" horiz-adv-x="640" 
d="M504 600h63v-600h-60l-370 493v-493h-64v600h60l371 -493v493z" />
    <glyph glyph-name="O" unicode="O" horiz-adv-x="715" 
d="M357 -8q-127 0 -217.5 90t-90.5 218t90.5 218t217.5 90q128 0 218 -90t90 -218t-90 -218t-218 -90zM357 56q102 0 173 71t71 173t-71 173t-173 71q-101 0 -172.5 -71t-71.5 -173t71.5 -173t172.5 -71z" />
    <glyph glyph-name="P" unicode="P" horiz-adv-x="472" 
d="M288 600q70 0 118.5 -49t48.5 -118q0 -70 -48.5 -118t-118.5 -48h-151v-267h-64v600h215zM282 328q47 0 78 28t31 76q0 47 -31.5 76.5t-77.5 29.5h-145v-210h145z" />
    <glyph glyph-name="Q" unicode="Q" horiz-adv-x="719" 
d="M688 60v-60h-261q-35 -8 -70 -8q-127 0 -217.5 90t-90.5 218t90.5 218t217.5 90q128 0 218 -90t90 -218q0 -85 -42 -156.5t-113 -111.5l88 28h90zM113 300q0 -102 71.5 -173t172.5 -71q102 0 173 71t71 173t-71 173t-173 71q-101 0 -172.5 -71t-71.5 -173z" />
    <glyph glyph-name="R" unicode="R" horiz-adv-x="502" 
d="M316 274l177 -274h-73l-170 271h-113v-271h-64v600h215q69 0 118 -49t49 -119q0 -60 -39.5 -105t-99.5 -53zM137 332h147q46 0 76.5 28.5t30.5 73.5t-30.5 73.5t-76.5 28.5h-147v-204z" />
    <glyph glyph-name="S" unicode="S" horiz-adv-x="438" 
d="M224 -8q-66 0 -119 33t-76 89l58 34q16 -42 52 -67t86 -25q52 0 86 26.5t34 73.5q0 35 -21.5 60.5t-54 39t-70.5 31t-70.5 34.5t-54 50.5t-21.5 78.5q0 72 48 115t119 43q50 0 92 -21t68 -54l-50 -42q-37 53 -108 53q-45 0 -75 -23t-30 -66q0 -33 21.5 -57.5t54 -37.5
t70.5 -30.5t70.5 -35.5t54 -53t21.5 -83q0 -76 -53 -121t-132 -45z" />
    <glyph glyph-name="T" unicode="T" horiz-adv-x="414" 
d="M405 600v-64h-166v-536h-64v536h-166v64h396z" />
    <glyph glyph-name="U" unicode="U" horiz-adv-x="591" 
d="M295 -8q-97 0 -161 58t-64 147v403h64v-393q0 -65 45.5 -108t115.5 -43t116 43t46 108v393h64v-403q0 -89 -64 -147t-162 -58z" />
    <glyph glyph-name="V" unicode="V" horiz-adv-x="505" 
d="M435 600h70l-217 -600h-71l-217 600h71l182 -518z" />
    <glyph glyph-name="W" unicode="W" horiz-adv-x="809" 
d="M749 600h66l-187 -600h-67l-157 532l-154 -532h-68l-188 600h68l153 -492l144 492h65h25l146 -493z" />
    <glyph glyph-name="X" unicode="X" horiz-adv-x="481" 
d="M480 0h-78l-162 251l-161 -251h-78l204 304l-199 296h77l157 -243l158 243h77l-200 -296z" />
    <glyph glyph-name="Y" unicode="Y" horiz-adv-x="485" 
d="M484 600l-209 -315v-285h-64v284l-210 316h80l162 -249l162 249h79z" />
    <glyph glyph-name="Z" unicode="Z" horiz-adv-x="528" 
d="M151 64h340v-64h-454l329 536h-305v64h418z" />
    <glyph glyph-name="bracketleft" unicode="[" horiz-adv-x="260" 
d="M73 -200v936h158v-48h-103v-840h103v-48h-158z" />
    <glyph glyph-name="backslash" unicode="\" horiz-adv-x="544" 
d="M499 -240l-514 976h60l514 -976h-60z" />
    <glyph glyph-name="bracketright" unicode="]" horiz-adv-x="260" 
d="M29 -200v48h103v840h-103v48h157v-936h-157z" />
    <glyph glyph-name="asciicircum" unicode="^" horiz-adv-x="564" 
d="M532 158h-53l-197 391l-197 -391h-54l222 442h57z" />
    <glyph glyph-name="underscore" unicode="_" horiz-adv-x="558" 
d="M39 -60v60h480v-60h-480z" />
    <glyph glyph-name="grave" unicode="`" horiz-adv-x="51" 
d="M184 452h-42l-118 148h72z" />
    <glyph glyph-name="a" unicode="a" horiz-adv-x="539" 
d="M502 52h25v-52q-13 -8 -30 -8q-70 0 -92 69q-64 -69 -152 -69q-86 0 -147 61t-61 147t61 147t147 61t146 -60v52h62v-296q0 -26 11.5 -39t29.5 -13zM253 54q60 0 103 42.5t43 103.5t-43 103.5t-103 42.5q-61 0 -103.5 -42.5t-42.5 -103.5t42.5 -103.5t103.5 -42.5z" />
    <glyph glyph-name="b" unicode="b" horiz-adv-x="534" 
d="M281 408q86 0 147 -61t61 -147t-61 -147t-147 -61q-84 0 -146 60v-52h-62v736h62v-388q62 60 146 60zM281 54q61 0 103.5 42.5t42.5 103.5t-42.5 103.5t-103.5 42.5t-103.5 -42.5t-42.5 -103.5t42.5 -103.5t103.5 -42.5z" />
    <glyph glyph-name="c" unicode="c" horiz-adv-x="477" 
d="M253 -8q-86 0 -147 61t-61 147t61 147t147 61q69 0 123.5 -40t74.5 -104h-66q-18 37 -53.5 59.5t-78.5 22.5q-61 0 -103.5 -42.5t-42.5 -103.5t42.5 -103.5t103.5 -42.5q43 0 78.5 22.5t53.5 59.5h66q-20 -64 -74.5 -104t-123.5 -40z" />
    <glyph glyph-name="d" unicode="d" horiz-adv-x="534" 
d="M399 736h62v-736h-62v52q-62 -60 -146 -60q-86 0 -147 61t-61 147t61 147t147 61q84 0 146 -60v388zM253 54q60 0 103 42.5t43 103.5t-43 103.5t-103 42.5q-61 0 -103.5 -42.5t-42.5 -103.5t42.5 -103.5t103.5 -42.5z" />
    <glyph glyph-name="e" unicode="e" horiz-adv-x="502" 
d="M461 204l-1 -13h-353q3 -58 45 -97.5t101 -39.5q45 0 81 24t53 63h66q-20 -65 -75 -107t-125 -42q-86 0 -147 61t-61 147t61 147t147 61t146 -59t62 -145zM253 346q-47 0 -85 -27.5t-53 -71.5h275q-14 44 -51.5 71.5t-85.5 27.5z" />
    <glyph glyph-name="f" unicode="f" horiz-adv-x="276" 
d="M265 400v-60h-107v-340h-62v340h-67v60h67v223q0 47 34 80t81 33q33 0 53 -13v-48l-46 1q-25 0 -42.5 -17t-17.5 -44v-215h107z" />
    <glyph glyph-name="g" unicode="g" horiz-adv-x="534" 
d="M398 400h63v-435q0 -86 -61 -147t-147 -61q-67 0 -120.5 38.5t-75.5 99.5l57 25q14 -44 52.5 -72.5t86.5 -28.5q60 0 103 43t43 103v87q-62 -60 -146 -60q-86 0 -147 61t-61 147q0 87 61 147.5t147 60.5q85 0 145 -58v50zM253 54q60 0 103 43t43 103q0 61 -43 103.5
t-103 42.5q-61 0 -103.5 -42.5t-42.5 -103.5q0 -60 42.5 -103t103.5 -43z" />
    <glyph glyph-name="h" unicode="h" horiz-adv-x="443" 
d="M224 408q63 0 107 -44t44 -108v-256h-61v256q0 38 -26.5 64t-63.5 26t-63 -26t-26 -64v-256h-62v736h62v-357q40 29 89 29z" />
    <glyph glyph-name="i" unicode="i" horiz-adv-x="223" 
d="M112 475q-18 0 -31 12.5t-13 29.5q0 18 13 30.5t31 12.5t30.5 -12.5t12.5 -30.5q0 -17 -13 -29.5t-30 -12.5zM81 0v400h62v-400h-62z" />
    <glyph glyph-name="j" unicode="j" horiz-adv-x="224" 
d="M112 475q-17 0 -30 12.5t-13 29.5q0 18 12.5 30.5t30.5 12.5t30.5 -12.5t12.5 -30.5q0 -17 -13 -29.5t-30 -12.5zM29 -240q-34 0 -53 13v48l45 -1q25 0 42.5 17t17.5 44v519h62v-527q0 -47 -33.5 -80t-80.5 -33z" />
    <glyph glyph-name="k" unicode="k" horiz-adv-x="413" 
d="M423 0h-85l-197 223v-223h-62v736h62v-511l182 175h83l-186 -178z" />
    <glyph glyph-name="l" unicode="l" horiz-adv-x="208" 
d="M73 0v736h62v-736h-62z" />
    <glyph glyph-name="m" unicode="m" horiz-adv-x="672" 
d="M456 408q62 0 105.5 -44.5t43.5 -107.5v-256h-62v256q0 37 -25.5 63.5t-61.5 26.5q-35 0 -60.5 -26.5t-25.5 -63.5v-256h-62v256q0 37 -25.5 63.5t-60.5 26.5q-37 0 -62 -26t-25 -64v-256h-62v400h62v-37q40 45 93 45q67 0 111 -60q44 60 117 60z" />
    <glyph glyph-name="n" unicode="n" horiz-adv-x="448" 
d="M232 408q59 0 103.5 -45t44.5 -108v-255h-62v255q0 38 -26.5 64.5t-64.5 26.5t-65 -26.5t-27 -64.5v-255h-62v400h62v-32q42 40 97 40z" />
    <glyph glyph-name="o" unicode="o" horiz-adv-x="506" 
d="M253 -8q-86 0 -147 61t-61 147t61 147t147 61t147 -61t61 -147t-61 -147t-147 -61zM253 54q60 0 103 42.5t43 103.5t-43 103.5t-103 42.5q-61 0 -103.5 -42.5t-42.5 -103.5t42.5 -103.5t103.5 -42.5z" />
    <glyph glyph-name="p" unicode="p" horiz-adv-x="534" 
d="M281 408q86 0 147 -61t61 -147t-61 -147t-147 -61q-84 0 -146 60v-292h-62v640h62v-52q62 60 146 60zM281 54q61 0 103.5 42.5t42.5 103.5t-42.5 103.5t-103.5 42.5t-103.5 -42.5t-42.5 -103.5t42.5 -103.5t103.5 -42.5z" />
    <glyph glyph-name="q" unicode="q" horiz-adv-x="534" 
d="M521 -180h37v-52q-19 -8 -44 -8q-47 0 -81 33t-34 80v179q-62 -60 -146 -60q-86 0 -147 61t-61 147t61 147t147 61q84 0 146 -60v52h62v-519q0 -27 17.5 -44t42.5 -17zM253 54q60 0 103 42.5t43 103.5t-43 103.5t-103 42.5q-61 0 -103.5 -42.5t-42.5 -103.5t42.5 -103.5
t103.5 -42.5z" />
    <glyph glyph-name="r" unicode="r" horiz-adv-x="304" 
d="M268 408q18 0 31 -3v-63q-12 4 -31 4q-55 0 -94 -37.5t-39 -91.5v-217h-62v400h62v-57q49 65 133 65z" />
    <glyph glyph-name="s" unicode="s" horiz-adv-x="331" 
d="M172 -8q-48 0 -88 25.5t-51 61.5l60 24q4 -21 27.5 -35.5t51.5 -14.5t47 15t19 40q0 22 -16.5 35t-57.5 29q-57 22 -85 49.5t-28 72.5q0 52 34.5 83t81.5 31q38 0 72 -19.5t45 -46.5l-54 -28q-17 32 -60 32q-56 0 -56 -50q0 -24 15.5 -36.5t58.5 -30.5q24 -10 40 -18.5
t34.5 -22.5t28 -34t9.5 -46q0 -51 -37 -83.5t-91 -32.5z" />
    <glyph glyph-name="t" unicode="t" horiz-adv-x="290" 
d="M257 340h-107v-227q0 -27 17.5 -44t42.5 -17h46v-47q-20 -13 -53 -13q-47 0 -81 33t-34 80v235h-67v60h67v174h62v-174h107v-60z" />
    <glyph glyph-name="u" unicode="u" horiz-adv-x="419" 
d="M210 -8q-68 0 -109 41.5t-41 110.5v256h61v-249q0 -44 25 -70.5t64 -26.5q40 0 64.5 26.5t24.5 70.5v249h61v-256q0 -69 -41.5 -110.5t-108.5 -41.5z" />
    <glyph glyph-name="v" unicode="v" horiz-adv-x="399" 
d="M323 400h67l-161 -400h-60l-160 400h67l124 -328z" />
    <glyph glyph-name="w" unicode="w" horiz-adv-x="642" 
d="M566 400h67l-137 -400h-68l-106 314l-107 -314h-68l-138 400h70l104 -326l109 326h59l109 -328z" />
    <glyph glyph-name="x" unicode="x" horiz-adv-x="426" 
d="M417 400l-166 -200l166 -200h-74l-129 155l-129 -155h-76l167 200l-167 200h75l129 -155l130 155h74z" />
    <glyph glyph-name="y" unicode="y" horiz-adv-x="409" 
d="M330 400h70l-172 -430l-85 -210h-66l96 237l-164 403h69l128 -328z" />
    <glyph glyph-name="z" unicode="z" horiz-adv-x="412" 
d="M379 400l-230 -338h230v-62h-346l230 338h-214v62h330z" />
    <glyph glyph-name="braceleft" unicode="{" horiz-adv-x="249" 
d="M186 -201q-34 0 -56.5 30t-22.5 75v209q0 59 -11 86.5t-49 46.5v43q38 20 49 48t11 86v207q0 45 22.5 75.5t56.5 30.5h36v-47q-38 0 -52 -14t-14 -53v-211q0 -51 -11 -85t-45 -58q34 -25 45 -59t11 -84v-215q0 -34 14.5 -49t51.5 -15v-47h-36z" />
    <glyph glyph-name="bar" unicode="|" horiz-adv-x="239" 
d="M98 -120v720h42v-720h-42z" />
    <glyph glyph-name="braceright" unicode="}" horiz-adv-x="249" 
d="M27 -201v47q37 0 51 15t14 49v215q0 50 11 84t45 59q-34 24 -45 58t-11 85v211q0 39 -14 53t-51 14v47h35q34 0 57 -30.5t23 -75.5v-207q0 -58 11 -86t49 -48v-43q-38 -19 -49 -46.5t-11 -86.5v-209q0 -45 -23 -75t-57 -30h-35z" />
    <glyph glyph-name="asciitilde" unicode="~" horiz-adv-x="471" 
d="M321 140q-24 0 -46.5 11t-32.5 21t-26 28q-32 38 -62 38q-31 0 -50 -25.5t-18 -63.5h-45q-3 59 29 96.5t84 37.5q53 0 99 -59q12 -13 19.5 -20.5t19.5 -13.5t25 -6q31 0 50 24.5t17 63.5h45q4 -56 -27 -94t-81 -38z" />
    <glyph glyph-name="exclamdown" unicode="&#xa1;" horiz-adv-x="244" 
d="M122 314q-17 0 -30 12.5t-13 30.5q0 17 13 30t30 13t30 -13t13 -30q0 -18 -13 -30.5t-30 -12.5zM91 -240l6 469h49l7 -469h-62z" />
    <glyph glyph-name="cent" unicode="&#xa2;" horiz-adv-x="437" 
d="M264 433q-64 0 -108.5 -44.5t-44.5 -108.5t44.5 -108.5t108.5 -44.5q67 0 110 40v-63q-44 -29 -101 -32v-73h-41v75q-78 11 -130.5 69.5t-52.5 136.5t52.5 136.5t130.5 69.5v75h41v-73q55 -3 101 -32v-63q-45 40 -110 40z" />
    <glyph glyph-name="sterling" unicode="&#xa3;" horiz-adv-x="494" 
d="M148 46h304v-46h-352v273h-64v43h64v111q0 80 49 130.5t127 50.5q54 0 101.5 -34.5t63.5 -86.5l-47 -21q-9 40 -43 66.5t-75 26.5q-58 0 -93 -36.5t-35 -95.5v-111h149v-43h-149v-227z" />
    <glyph glyph-name="currency" unicode="&#xa4;" horiz-adv-x="488" 
d="M99 111l-34 36l41 40q-35 45 -35 103.5t35 103.5l-40 39l34 36l41 -41q46 36 104 36t103 -35l40 39l35 -34l-40 -39q35 -46 35 -104.5t-35 -104.5l40 -39l-34 -36l-41 41q-45 -36 -103.5 -36t-104.5 36zM155 202q38 -37 89.5 -37t88.5 37t36.5 88.5t-37.5 88.5
q-37 36 -88.5 36t-88.5 -37q-35 -36 -35.5 -88t35.5 -88z" />
    <glyph glyph-name="yen" unicode="&#xa5;" horiz-adv-x="546" 
d="M301 288v-8h165v-40h-165v-82h165v-40h-165v-118h-56v118h-163v40h163v82h-164v40h164v8l-206 312h60l173 -267l175 267h59z" />
    <glyph glyph-name="brokenbar" unicode="&#xa6;" horiz-adv-x="239" 
d="M98 312v288h42v-288h-42zM98 -120v288h42v-288h-42z" />
    <glyph glyph-name="section" unicode="&#xa7;" horiz-adv-x="505" 
d="M416 196q32 -27 32 -70q0 -56 -56.5 -90t-135.5 -34q-68 0 -121 25.5t-75 64.5l41 24q16 -31 57.5 -51t99.5 -20q60 0 101 21.5t41 59.5q0 30 -32 50t-78 32.5t-92 27t-78 42.5t-32 71q0 41 32 71q-32 29 -32 70q0 55 49.5 86.5t118.5 31.5q100 0 158 -56l-34 -28
q-44 42 -121 42q-51 0 -87 -19.5t-36 -54.5q0 -31 32 -51t78 -32.5t92 -27t78 -42.5t32 -71q0 -42 -32 -72zM136 350q0 -35 37 -55.5t105.5 -39t98.5 -33.5q23 18 23 46q0 34 -37 54.5t-105.5 39t-98.5 33.5q-23 -17 -23 -45z" />
    <glyph glyph-name="dieresis" unicode="&#xa8;" horiz-adv-x="51" 
d="M100 475q-18 0 -31 12.5t-13 29.5q0 18 13 30.5t31 12.5t30.5 -12.5t12.5 -30.5q0 -17 -13 -29.5t-30 -12.5zM245 475q-17 0 -30 12.5t-13 29.5q0 18 12.5 30.5t30.5 12.5t30.5 -12t12.5 -31q0 -17 -12.5 -29.5t-30.5 -12.5z" />
    <glyph glyph-name="copyright" unicode="&#xa9;" horiz-adv-x="715" 
d="M357 -8q-127 0 -217.5 90.5t-90.5 217.5t90.5 217.5t217.5 90.5t217.5 -90t90.5 -218t-90.5 -218t-217.5 -90zM357 29q114 0 193 79t79 192t-79 192t-193 79q-113 0 -191.5 -79t-78.5 -192t78.5 -192t191.5 -79zM364 125q-72 0 -123 51t-51 123q0 71 51 122t123 51
q57 0 102.5 -33.5t62.5 -86.5h-55q-15 31 -44.5 49.5t-65.5 18.5q-51 0 -86.5 -35t-35.5 -86q0 -52 35.5 -87t86.5 -35q36 0 65.5 18.5t44.5 49.5h55q-17 -53 -62.5 -86.5t-102.5 -33.5z" />
    <glyph glyph-name="ordfeminine" unicode="&#xaa;" horiz-adv-x="345" 
d="M258 600h34v-240h-34v54q-33 -59 -101 -59q-50 0 -86 36.5t-36 88.5t36 88.5t86 36.5q67 0 101 -59v54zM163 385q39 0 67 27.5t28 67.5q0 38 -28 65.5t-67 27.5t-66.5 -27.5t-27.5 -65.5q0 -40 27.5 -67.5t66.5 -27.5z" />
    <glyph glyph-name="guillemotleft" unicode="&#xab;" horiz-adv-x="511" 
d="M217 76l-121 147l121 147h54l-122 -147l122 -147h-54zM362 76l-122 147l122 147h54l-121 -147l121 -147h-54z" />
    <glyph glyph-name="logicalnot" unicode="&#xac;" horiz-adv-x="638" 
d="M513 93v205h-434v47h481v-252h-47z" />
    <glyph glyph-name="uni00AD" unicode="&#xad;" horiz-adv-x="366" 
d="M40 178v60h280v-60h-280z" />
    <glyph glyph-name="registered" unicode="&#xae;" horiz-adv-x="715" 
d="M357 608q127 0 217.5 -90t90.5 -218t-90.5 -218t-217.5 -90t-217.5 90.5t-90.5 217.5t90.5 217.5t217.5 90.5zM357 29q114 0 193 79t79 192t-79 192t-193 79q-113 0 -191.5 -79t-78.5 -192t78.5 -192t191.5 -79zM468 368q0 -30 -17.5 -53.5t-46.5 -31.5l76 -139h-39
l-76 135h-54v-135h-35v312h101q38 0 64.5 -25.5t26.5 -62.5zM311 422v-108h66q23 0 39 15.5t16 38.5t-16 38.5t-39 15.5h-66z" />
    <glyph glyph-name="macron" unicode="&#xaf;" horiz-adv-x="62" 
d="M47 483v42h215v-42h-215z" />
    <glyph glyph-name="degree" unicode="&#xb0;" horiz-adv-x="404" 
d="M202 394q-44 0 -75.5 31.5t-31.5 75.5t31.5 75.5t75.5 31.5t75.5 -31.5t31.5 -75.5t-31.5 -75.5t-75.5 -31.5zM202 428q31 0 52 21t21 52t-21 52t-52 21t-52 -21t-21 -52t21 -52t52 -21z" />
    <glyph glyph-name="plusminus" unicode="&#xb1;" horiz-adv-x="647" 
d="M350 348h250v-54h-250v-144h-53v144h-250v54h250v144h53v-144zM47 0v48h553v-48h-553z" />
    <glyph glyph-name="uni00B2" unicode="&#xb2;" horiz-adv-x="306" 
d="M110 345h139v-31h-208l121 133q28 31 36.5 45.5t8.5 30.5q0 25 -15.5 39t-38.5 15q-24 0 -39.5 -15t-14.5 -40h-34q-1 38 25 62t64 24q36 -1 60.5 -22.5t25.5 -57.5q1 -24 -10.5 -44t-45.5 -58z" />
    <glyph glyph-name="uni00B3" unicode="&#xb3;" horiz-adv-x="292" 
d="M144 481q39 0 65.5 -25t26.5 -62q0 -36 -26.5 -62t-63.5 -26t-63 24.5t-26 59.5h32q0 -22 17 -37.5t40 -15.5q24 0 41 17t17 42q0 24 -17 39t-41 15h-69l92 119h-112v30h172l-93 -118h8z" />
    <glyph glyph-name="acute" unicode="&#xb4;" horiz-adv-x="51" 
d="M8 452l88 148h72l-118 -148h-42z" />
    <glyph glyph-name="uni00B5" unicode="&#xb5;" horiz-adv-x="477" 
d="M356 400h61v-400h-61v62q-47 -70 -129 -70q-63 0 -108 43v-235h-48v600h62v-243q0 -46 32 -78t78 -32q47 0 80 32t33 78v243z" />
    <glyph glyph-name="paragraph" unicode="&#xb6;" horiz-adv-x="504" 
d="M256 -120v452h-27q-67 0 -104.5 34.5t-37.5 99.5t37.5 99.5t104.5 34.5h62v-720h-35zM366 -120v720h35v-720h-35z" />
    <glyph glyph-name="periodcentered" unicode="&#xb7;" horiz-adv-x="229" 
d="M114 253q-14 0 -24.5 10t-10.5 25q0 14 10.5 24.5t24.5 10.5t25 -10.5t11 -24.5q0 -15 -10.5 -25t-25.5 -10z" />
    <glyph glyph-name="cedilla" unicode="&#xb8;" horiz-adv-x="54" 
d="M123 -208q-27 0 -54 15t-38 37l34 14q9 -12 26 -20.5t32 -8.5q19 0 32 13.5t13 32.5q0 27 -23 37.5t-56 -2.5l-30 20l35 70h38l-26 -53q41 8 70 -13t29 -59q0 -35 -23.5 -59t-58.5 -24z" />
    <glyph glyph-name="uni00B9" unicode="&#xb9;" horiz-adv-x="223" 
d="M85 300v270h-46v30h80v-300h-34z" />
    <glyph glyph-name="ordmasculine" unicode="&#xba;" horiz-adv-x="327" 
d="M163 355q-53 0 -90.5 36.5t-37.5 88.5t37.5 88.5t90.5 36.5t91 -36.5t38 -88.5t-38 -88.5t-91 -36.5zM163 385q39 0 67 27.5t28 67.5q0 38 -28 65.5t-67 27.5t-66.5 -27.5t-27.5 -65.5q0 -40 27.5 -67.5t66.5 -27.5z" />
    <glyph glyph-name="guillemotright" unicode="&#xbb;" horiz-adv-x="511" 
d="M95 76l121 147l-121 147h53l122 -147l-122 -147h-53zM239 76l122 147l-122 147h55l122 -147l-122 -147h-55z" />
    <glyph glyph-name="onequarter" unicode="&#xbc;" horiz-adv-x="838" 
d="M148 200h-42v358h-67v42h109v-400zM565 598h50l-419 -600h-49zM783 127v-43h-42v-84h-43v84h-193l183 316h53v-273h42zM570 127h128v224z" />
    <glyph glyph-name="onehalf" unicode="&#xbd;" horiz-adv-x="851" 
d="M148 200h-42v358h-67v42h109v-400zM556 600h50l-419 -600h-49zM615 43h191v-43h-288l168 183q38 42 50 63t12 43q0 35 -21 54.5t-53 20.5q-33 0 -54.5 -21t-21.5 -56h-46q-1 53 35 86.5t89 32.5q49 0 83 -30t35 -80q1 -33 -14.5 -60.5t-63.5 -80.5z" />
    <glyph glyph-name="threequarters" unicode="&#xbe;" horiz-adv-x="856" 
d="M304 319q0 -51 -36.5 -86.5t-88.5 -35.5q-51 0 -87 34t-36 82h44q0 -31 23 -52.5t56 -21.5q34 0 57.5 24t23.5 58q0 32 -23 53t-57 21h-96l127 165h-155v42h238l-128 -164h11q54 0 90.5 -34t36.5 -85zM614 598h50l-419 -600h-49zM801 127v-43h-42v-84h-43v84h-193
l183 316h53v-273h42zM588 127h128v224z" />
    <glyph glyph-name="questiondown" unicode="&#xbf;" horiz-adv-x="485" 
d="M224 325q-18 0 -31 13t-13 30q0 18 13 30.5t31 12.5q17 0 30 -12.5t13 -30.5q0 -17 -13 -30t-30 -13zM227 -240q-74 0 -123 46.5t-49 117.5q0 36 10.5 62.5t26.5 40.5t34.5 26.5t34.5 21.5t26.5 25t10.5 38v98h57v-91q0 -34 -10.5 -58t-27 -35.5t-35 -23t-35 -21.5
t-27 -31t-10.5 -52q0 -48 33 -79t84 -31q48 0 80.5 31t34.5 78h56q-2 -71 -50 -117t-121 -46z" />
    <glyph glyph-name="Agrave" unicode="&#xc0;" horiz-adv-x="505" 
d="M278 652h-42l-118 148h72zM435 0l-49 140h-267l-49 -140h-70l217 600h71l217 -600h-70zM140 201h225l-112 323z" />
    <glyph glyph-name="Aacute" unicode="&#xc1;" horiz-adv-x="505" 
d="M388 800l-118 -148h-42l88 148h72zM435 0l-49 140h-267l-49 -140h-70l217 600h71l217 -600h-70zM140 201h225l-112 323z" />
    <glyph glyph-name="Acircumflex" unicode="&#xc2;" horiz-adv-x="505" 
d="M253 759l-62 -107h-48l78 148h64l79 -148h-49zM435 0l-49 140h-267l-49 -140h-70l217 600h71l217 -600h-70zM140 201h225l-112 323z" />
    <glyph glyph-name="Atilde" unicode="&#xc3;" horiz-adv-x="505" 
d="M200 733q-19 0 -29.5 -17.5t-10.5 -44.5h-46q0 47 23 77.5t61 30.5q42 0 73 -44q16 -22 35 -22q39 0 39 62h46q0 -47 -22.5 -77.5t-62.5 -30.5q-43 0 -73 44q-13 22 -33 22zM435 0l-49 140h-267l-49 -140h-70l217 600h71l217 -600h-70zM140 201h225l-112 323z" />
    <glyph glyph-name="Adieresis" unicode="&#xc4;" horiz-adv-x="505" 
d="M181 675q-18 0 -31 12.5t-13 29.5q0 18 13 30.5t31 12.5t30.5 -12.5t12.5 -30.5q0 -17 -13 -29.5t-30 -12.5zM326 675q-17 0 -30 12.5t-13 29.5q0 18 12.5 30.5t30.5 12.5t30.5 -12t12.5 -31q0 -17 -12.5 -29.5t-30.5 -12.5zM435 0l-49 140h-267l-49 -140h-70l217 600h71
l217 -600h-70zM140 201h225l-112 323z" />
    <glyph glyph-name="Aring" unicode="&#xc5;" horiz-adv-x="505" 
d="M435 0l-49 140h-267l-49 -140h-70l210 580q-40 25 -40 70q0 34 24.5 58.5t59.5 24.5q34 0 58 -24.5t24 -58.5q0 -48 -40 -71l209 -579h-70zM254 700q-21 0 -35 -14.5t-14 -35.5t14 -35t35 -14q20 0 34 14t14 35q0 20 -14.5 35t-33.5 15zM140 201h225l-112 323z" />
    <glyph glyph-name="AE" unicode="&#xc6;" horiz-adv-x="710" 
d="M649 536h-264v-204h230v-64h-230v-204h264v-64h-327v143h-193l-56 -143h-73l241 600h408v-64zM153 204h169v341h-35z" />
    <glyph glyph-name="Ccedilla" unicode="&#xc7;" horiz-adv-x="658" 
d="M357 56q68 0 125 33.5t88 89.5l55 -31q-39 -68 -105.5 -110t-147.5 -46l-22 -45q41 8 70 -13t29 -59q0 -35 -23.5 -59t-58.5 -24q-27 0 -54 15t-38 37l34 14q9 -12 26 -20.5t32 -8.5q19 0 32 13.5t13 32.5q0 27 -23 37.5t-56 -2.5l-30 20l31 63q-120 8 -202.5 97
t-82.5 210q0 128 90.5 218t217.5 90q85 0 156 -42.5t112 -113.5l-55 -31q-31 56 -88 89.5t-125 33.5q-101 0 -172.5 -71t-71.5 -173t71.5 -173t172.5 -71z" />
    <glyph glyph-name="Egrave" unicode="&#xc8;" horiz-adv-x="466" 
d="M267 652h-42l-118 148h72zM406 538h-264v-207h230v-62h-230v-207h264v-62h-328v600h328v-62z" />
    <glyph glyph-name="Eacute" unicode="&#xc9;" horiz-adv-x="466" 
d="M377 800l-118 -148h-42l88 148h72zM406 538h-264v-207h230v-62h-230v-207h264v-62h-328v600h328v-62z" />
    <glyph glyph-name="Ecircumflex" unicode="&#xca;" horiz-adv-x="466" 
d="M242 759l-62 -107h-48l78 148h64l79 -148h-49zM406 538h-264v-207h230v-62h-230v-207h264v-62h-328v600h328v-62z" />
    <glyph glyph-name="Edieresis" unicode="&#xcb;" horiz-adv-x="466" 
d="M170 675q-18 0 -31 12.5t-13 29.5q0 18 13 30.5t31 12.5t30.5 -12.5t12.5 -30.5q0 -17 -13 -29.5t-30 -12.5zM315 675q-17 0 -30 12.5t-13 29.5q0 18 12.5 30.5t30.5 12.5t30.5 -12t12.5 -31q0 -17 -12.5 -29.5t-30.5 -12.5zM406 538h-264v-207h230v-62h-230v-207h264
v-62h-328v600h328v-62z" />
    <glyph glyph-name="Igrave" unicode="&#xcc;" horiz-adv-x="219" 
d="M135 652h-42l-118 148h72zM78 0v600h64v-600h-64z" />
    <glyph glyph-name="Iacute" unicode="&#xcd;" horiz-adv-x="219" 
d="M85 652l88 148h72l-118 -148h-42zM78 0v600h64v-600h-64z" />
    <glyph glyph-name="Icircumflex" unicode="&#xce;" horiz-adv-x="219" 
d="M48 652h-48l78 148h64l79 -148h-49l-62 107zM78 0v600h64v-600h-64z" />
    <glyph glyph-name="Idieresis" unicode="&#xcf;" horiz-adv-x="219" 
d="M38 675q-18 0 -31 12.5t-13 29.5q0 18 13 30.5t31 12.5t30.5 -12.5t12.5 -30.5q0 -17 -13 -29.5t-30 -12.5zM183 675q-17 0 -30 12.5t-13 29.5q0 18 12.5 30.5t30.5 12.5t30.5 -12t12.5 -31q0 -17 -12.5 -29.5t-30.5 -12.5zM78 0v600h64v-600h-64z" />
    <glyph glyph-name="Eth" unicode="&#xd0;" horiz-adv-x="586" 
d="M237 600q124 0 212 -88t88 -212t-88 -212t-212 -88h-164v271h-62v60h62v269h164zM236 64q100 0 168.5 67.5t68.5 168.5t-68.5 168.5t-168.5 67.5h-100v-205h107v-60h-107v-207h100z" />
    <glyph glyph-name="Ntilde" unicode="&#xd1;" horiz-adv-x="640" 
d="M265 733q-19 0 -29.5 -17.5t-10.5 -44.5h-46q0 47 23 77.5t61 30.5q42 0 73 -44q16 -22 35 -22q39 0 39 62h46q0 -47 -22.5 -77.5t-62.5 -30.5q-43 0 -73 44q-13 22 -33 22zM504 600h63v-600h-60l-370 493v-493h-64v600h60l371 -493v493z" />
    <glyph glyph-name="Ograve" unicode="&#xd2;" horiz-adv-x="715" 
d="M382 652h-42l-118 148h72zM357 -8q-127 0 -217.5 90t-90.5 218t90.5 218t217.5 90q128 0 218 -90t90 -218t-90 -218t-218 -90zM357 56q102 0 173 71t71 173t-71 173t-173 71q-101 0 -172.5 -71t-71.5 -173t71.5 -173t172.5 -71z" />
    <glyph glyph-name="Oacute" unicode="&#xd3;" horiz-adv-x="715" 
d="M332 652l88 148h72l-118 -148h-42zM357 -8q-127 0 -217.5 90t-90.5 218t90.5 218t217.5 90q128 0 218 -90t90 -218t-90 -218t-218 -90zM357 56q102 0 173 71t71 173t-71 173t-173 71q-101 0 -172.5 -71t-71.5 -173t71.5 -173t172.5 -71z" />
    <glyph glyph-name="Ocircumflex" unicode="&#xd4;" horiz-adv-x="715" 
d="M295 652h-48l78 148h64l79 -148h-49l-62 107zM357 -8q-127 0 -217.5 90t-90.5 218t90.5 218t217.5 90q128 0 218 -90t90 -218t-90 -218t-218 -90zM357 56q102 0 173 71t71 173t-71 173t-173 71q-101 0 -172.5 -71t-71.5 -173t71.5 -173t172.5 -71z" />
    <glyph glyph-name="Otilde" unicode="&#xd5;" horiz-adv-x="715" 
d="M410 667q-43 0 -73 44q-13 22 -33 22q-19 0 -29.5 -17.5t-10.5 -44.5h-46q0 47 23 77.5t61 30.5q42 0 73 -44q16 -22 35 -22q39 0 39 62h46q0 -47 -22.5 -77.5t-62.5 -30.5zM357 -8q-127 0 -217.5 90t-90.5 218t90.5 218t217.5 90q128 0 218 -90t90 -218t-90 -218
t-218 -90zM357 56q102 0 173 71t71 173t-71 173t-173 71q-101 0 -172.5 -71t-71.5 -173t71.5 -173t172.5 -71z" />
    <glyph glyph-name="Odieresis" unicode="&#xd6;" horiz-adv-x="715" 
d="M285 675q-18 0 -31 12.5t-13 29.5q0 18 13 30.5t31 12.5t30.5 -12.5t12.5 -30.5q0 -17 -13 -29.5t-30 -12.5zM430 675q-17 0 -30 12.5t-13 29.5q0 18 12.5 30.5t30.5 12.5t30.5 -12t12.5 -31q0 -17 -12.5 -29.5t-30.5 -12.5zM357 -8q-127 0 -217.5 90t-90.5 218t90.5 218
t217.5 90q128 0 218 -90t90 -218t-90 -218t-218 -90zM357 56q102 0 173 71t71 173t-71 173t-173 71q-101 0 -172.5 -71t-71.5 -173t71.5 -173t172.5 -71z" />
    <glyph glyph-name="multiply" unicode="&#xd7;" horiz-adv-x="586" 
d="M489 377l-129 -129l129 -129l-65 -67l-130 130l-130 -130l-65 67l129 129l-129 129l65 67l130 -130l130 130z" />
    <glyph glyph-name="Oslash" unicode="&#xd8;" horiz-adv-x="715" 
d="M556 536q109 -93 109 -236q0 -128 -90 -218t-218 -90q-80 0 -152 40l-48 -68l-47 29l49 71q-51 43 -80.5 104.5t-29.5 131.5q0 128 90.5 218t217.5 90q83 0 154 -41l47 68l46 -30zM113 300q0 -111 83 -184l278 399q-56 29 -117 29q-101 0 -172.5 -71t-71.5 -173zM357 56
q102 0 173 71t71 173q0 111 -82 183l-278 -398q53 -29 116 -29z" />
    <glyph glyph-name="Ugrave" unicode="&#xd9;" horiz-adv-x="591" 
d="M320 652h-42l-118 148h72zM295 -8q-97 0 -161 58t-64 147v403h64v-393q0 -65 45.5 -108t115.5 -43t116 43t46 108v393h64v-403q0 -89 -64 -147t-162 -58z" />
    <glyph glyph-name="Uacute" unicode="&#xda;" horiz-adv-x="591" 
d="M270 652l88 148h72l-118 -148h-42zM295 -8q-97 0 -161 58t-64 147v403h64v-393q0 -65 45.5 -108t115.5 -43t116 43t46 108v393h64v-403q0 -89 -64 -147t-162 -58z" />
    <glyph glyph-name="Ucircumflex" unicode="&#xdb;" horiz-adv-x="591" 
d="M233 652h-48l78 148h64l79 -148h-49l-62 107zM295 -8q-97 0 -161 58t-64 147v403h64v-393q0 -65 45.5 -108t115.5 -43t116 43t46 108v393h64v-403q0 -89 -64 -147t-162 -58z" />
    <glyph glyph-name="Udieresis" unicode="&#xdc;" horiz-adv-x="591" 
d="M223 675q-18 0 -31 12.5t-13 29.5q0 18 13 30.5t31 12.5t30.5 -12.5t12.5 -30.5q0 -17 -13 -29.5t-30 -12.5zM368 675q-17 0 -30 12.5t-13 29.5q0 18 12.5 30.5t30.5 12.5t30.5 -12t12.5 -31q0 -17 -12.5 -29.5t-30.5 -12.5zM295 -8q-97 0 -161 58t-64 147v403h64v-393
q0 -65 45.5 -108t115.5 -43t116 43t46 108v393h64v-403q0 -89 -64 -147t-162 -58z" />
    <glyph glyph-name="Yacute" unicode="&#xdd;" horiz-adv-x="485" 
d="M378 800l-118 -148h-42l88 148h72zM484 600l-209 -315v-285h-64v284l-210 316h80l162 -249l162 249h79z" />
    <glyph glyph-name="Thorn" unicode="&#xde;" horiz-adv-x="491" 
d="M292 517q69 0 118 -49t49 -119q0 -69 -49 -117t-118 -48h-151v-184h-62v517v83h62v-83h151zM287 246q47 0 77.5 29.5t30.5 75.5t-30.5 75t-77.5 29h-146v-209h146z" />
    <glyph glyph-name="germandbls" unicode="&#xdf;" horiz-adv-x="543" 
d="M382 306q45 -21 72 -61t27 -90q0 -67 -45.5 -111t-111.5 -44h-116v64h106q44 0 74 25t30 69q0 47 -33.5 80t-81.5 33h-47v52h20q46 0 78.5 33t32.5 80q0 48 -33.5 78.5t-86.5 30.5q-54 0 -90 -33t-36 -82v-430h-62v430q0 73 54 121.5t134 48.5q78 0 128.5 -46t50.5 -117
q0 -82 -64 -131z" />
    <glyph glyph-name="agrave" unicode="&#xe0;" horiz-adv-x="539" 
d="M278 452h-42l-118 148h72zM502 52h25v-52q-13 -8 -30 -8q-70 0 -92 69q-64 -69 -152 -69q-86 0 -147 61t-61 147t61 147t147 61t146 -60v52h62v-296q0 -26 11.5 -39t29.5 -13zM253 54q60 0 103 42.5t43 103.5t-43 103.5t-103 42.5q-61 0 -103.5 -42.5t-42.5 -103.5
t42.5 -103.5t103.5 -42.5z" />
    <glyph glyph-name="aacute" unicode="&#xe1;" horiz-adv-x="539" 
d="M388 600l-118 -148h-42l88 148h72zM502 52h25v-52q-13 -8 -30 -8q-70 0 -92 69q-64 -69 -152 -69q-86 0 -147 61t-61 147t61 147t147 61t146 -60v52h62v-296q0 -26 11.5 -39t29.5 -13zM253 54q60 0 103 42.5t43 103.5t-43 103.5t-103 42.5q-61 0 -103.5 -42.5
t-42.5 -103.5t42.5 -103.5t103.5 -42.5z" />
    <glyph glyph-name="acircumflex" unicode="&#xe2;" horiz-adv-x="539" 
d="M253 559l-62 -107h-48l78 148h64l79 -148h-49zM502 52h25v-52q-13 -8 -30 -8q-70 0 -92 69q-64 -69 -152 -69q-86 0 -147 61t-61 147t61 147t147 61t146 -60v52h62v-296q0 -26 11.5 -39t29.5 -13zM253 54q60 0 103 42.5t43 103.5t-43 103.5t-103 42.5q-61 0 -103.5 -42.5
t-42.5 -103.5t42.5 -103.5t103.5 -42.5z" />
    <glyph glyph-name="atilde" unicode="&#xe3;" horiz-adv-x="539" 
d="M200 533q-19 0 -29.5 -17.5t-10.5 -44.5h-46q0 47 23 77.5t61 30.5q42 0 73 -44q16 -22 35 -22q39 0 39 62h46q0 -47 -22.5 -77.5t-62.5 -30.5q-43 0 -73 44q-13 22 -33 22zM502 52h25v-52q-13 -8 -30 -8q-70 0 -92 69q-64 -69 -152 -69q-86 0 -147 61t-61 147t61 147
t147 61t146 -60v52h62v-296q0 -26 11.5 -39t29.5 -13zM253 54q60 0 103 42.5t43 103.5t-43 103.5t-103 42.5q-61 0 -103.5 -42.5t-42.5 -103.5t42.5 -103.5t103.5 -42.5z" />
    <glyph glyph-name="adieresis" unicode="&#xe4;" horiz-adv-x="539" 
d="M181 475q-18 0 -31 12.5t-13 29.5q0 18 13 30.5t31 12.5t30.5 -12.5t12.5 -30.5q0 -17 -13 -29.5t-30 -12.5zM326 475q-17 0 -30 12.5t-13 29.5q0 18 12.5 30.5t30.5 12.5t30.5 -12t12.5 -31q0 -17 -12.5 -29.5t-30.5 -12.5zM502 52h25v-52q-13 -8 -30 -8q-70 0 -92 69
q-64 -69 -152 -69q-86 0 -147 61t-61 147t61 147t147 61t146 -60v52h62v-296q0 -26 11.5 -39t29.5 -13zM253 54q60 0 103 42.5t43 103.5t-43 103.5t-103 42.5q-61 0 -103.5 -42.5t-42.5 -103.5t42.5 -103.5t103.5 -42.5z" />
    <glyph glyph-name="aring" unicode="&#xe5;" horiz-adv-x="539" 
d="M253 438q-34 0 -59 24.5t-25 58.5t24.5 58.5t59.5 24.5q34 0 58 -24.5t24 -58.5t-24 -58.5t-58 -24.5zM253 571q-21 0 -35 -14.5t-14 -35.5t14 -35t35 -14q20 0 34 14t14 35q0 20 -14.5 35t-33.5 15zM502 52h25v-52q-13 -8 -30 -8q-70 0 -92 69q-64 -69 -152 -69
q-86 0 -147 61t-61 147t61 147t147 61t146 -60v52h62v-296q0 -26 11.5 -39t29.5 -13zM253 54q60 0 103 42.5t43 103.5t-43 103.5t-103 42.5q-61 0 -103.5 -42.5t-42.5 -103.5t42.5 -103.5t103.5 -42.5z" />
    <glyph glyph-name="ae" unicode="&#xe6;" horiz-adv-x="778" 
d="M738 204l-1 -13h-353q3 -58 45 -97.5t101 -39.5q45 0 81 24t53 63h66q-20 -65 -75 -107t-125 -42q-104 0 -166 83q-86 -83 -174 -83q-64 0 -104.5 35.5t-40.5 92.5q0 58 43 92t115 34h116v16q0 41 -28 68t-71 27q-33 0 -60.5 -17t-35.5 -44l-62 21q16 40 59.5 65.5
t99.5 25.5q50 0 88.5 -21.5t57.5 -57.5q63 79 163 79q86 0 146 -59t62 -145zM530 346q-47 0 -85 -27.5t-53 -71.5h275q-14 44 -51.5 71.5t-85.5 27.5zM190 49q33 0 72.5 21.5t72.5 57.5q-12 31 -13 61h-119q-46 0 -71 -18.5t-25 -52.5q0 -32 22.5 -50.5t60.5 -18.5z" />
    <glyph glyph-name="ccedilla" unicode="&#xe7;" horiz-adv-x="477" 
d="M253 54q43 0 78.5 22.5t53.5 59.5h66q-19 -59 -67 -98t-110 -45l-23 -46q41 8 70 -13t29 -59q0 -35 -23.5 -59t-58.5 -24q-27 0 -54 15t-38 37l34 14q9 -12 26 -20.5t32 -8.5q19 0 32 13.5t13 32.5q0 27 -23 37.5t-56 -2.5l-30 20l31 63q-80 7 -135 66.5t-55 140.5
q0 86 61 147t147 61q69 0 123.5 -40t74.5 -104h-66q-18 37 -53.5 59.5t-78.5 22.5q-61 0 -103.5 -42.5t-42.5 -103.5t42.5 -103.5t103.5 -42.5z" />
    <glyph glyph-name="egrave" unicode="&#xe8;" horiz-adv-x="502" 
d="M282 456h-42l-118 148h72zM461 204l-1 -13h-353q3 -58 45 -97.5t101 -39.5q45 0 81 24t53 63h66q-20 -65 -75 -107t-125 -42q-86 0 -147 61t-61 147t61 147t147 61t146 -59t62 -145zM253 346q-47 0 -85 -27.5t-53 -71.5h275q-14 44 -51.5 71.5t-85.5 27.5z" />
    <glyph glyph-name="eacute" unicode="&#xe9;" horiz-adv-x="502" 
d="M392 604l-118 -148h-42l88 148h72zM461 204l-1 -13h-353q3 -58 45 -97.5t101 -39.5q45 0 81 24t53 63h66q-20 -65 -75 -107t-125 -42q-86 0 -147 61t-61 147t61 147t147 61t146 -59t62 -145zM253 346q-47 0 -85 -27.5t-53 -71.5h275q-14 44 -51.5 71.5t-85.5 27.5z" />
    <glyph glyph-name="ecircumflex" unicode="&#xea;" horiz-adv-x="502" 
d="M257 563l-62 -107h-48l78 148h64l79 -148h-49zM461 204l-1 -13h-353q3 -58 45 -97.5t101 -39.5q45 0 81 24t53 63h66q-20 -65 -75 -107t-125 -42q-86 0 -147 61t-61 147t61 147t147 61t146 -59t62 -145zM253 346q-47 0 -85 -27.5t-53 -71.5h275q-14 44 -51.5 71.5
t-85.5 27.5z" />
    <glyph glyph-name="edieresis" unicode="&#xeb;" horiz-adv-x="502" 
d="M185 479q-18 0 -31 12.5t-13 29.5q0 18 13 30.5t31 12.5t30.5 -12.5t12.5 -30.5q0 -17 -13 -29.5t-30 -12.5zM330 479q-17 0 -30 12.5t-13 29.5q0 18 12.5 30.5t30.5 12.5t30.5 -12t12.5 -31q0 -17 -12.5 -29.5t-30.5 -12.5zM461 204l-1 -13h-353q3 -58 45 -97.5
t101 -39.5q45 0 81 24t53 63h66q-20 -65 -75 -107t-125 -42q-86 0 -147 61t-61 147t61 147t147 61t146 -59t62 -145zM253 346q-47 0 -85 -27.5t-53 -71.5h275q-14 44 -51.5 71.5t-85.5 27.5z" />
    <glyph glyph-name="igrave" unicode="&#xec;" horiz-adv-x="219" 
d="M135 452h-42l-118 148h72zM79 0v400h62v-400h-62z" />
    <glyph glyph-name="iacute" unicode="&#xed;" horiz-adv-x="219" 
d="M85 452l88 148h72l-118 -148h-42zM79 0v400h62v-400h-62z" />
    <glyph glyph-name="icircumflex" unicode="&#xee;" horiz-adv-x="219" 
d="M48 452h-48l78 148h64l79 -148h-49l-62 107zM79 0v400h62v-400h-62z" />
    <glyph glyph-name="idieresis" unicode="&#xef;" horiz-adv-x="219" 
d="M38 475q-18 0 -31 12.5t-13 29.5q0 18 13 30.5t31 12.5t30.5 -12.5t12.5 -30.5q0 -17 -13 -29.5t-30 -12.5zM183 475q-17 0 -30 12.5t-13 29.5q0 18 12.5 30.5t30.5 12.5t30.5 -12t12.5 -31q0 -17 -12.5 -29.5t-30.5 -12.5zM79 0v400h62v-400h-62z" />
    <glyph glyph-name="eth" unicode="&#xf0;" horiz-adv-x="513" 
d="M328 546q68 -55 107 -146t39 -200q0 -86 -62.5 -147t-151.5 -61t-152 61t-63 147t63 147t152 61q69 0 127 -40q-30 86 -91 136l-44 -56l-32 26l42 53q-52 30 -118 32l12 51q75 0 140 -40l37 46l31 -24zM260 53q61 0 103.5 43t42.5 104t-42.5 104t-103.5 43t-104 -43
t-43 -104t43 -104t104 -43z" />
    <glyph glyph-name="ntilde" unicode="&#xf1;" horiz-adv-x="448" 
d="M174 533q-19 0 -29.5 -17.5t-10.5 -44.5h-46q0 47 23 77.5t61 30.5q42 0 73 -44q16 -22 35 -22q39 0 39 62h46q0 -47 -22.5 -77.5t-62.5 -30.5q-43 0 -73 44q-13 22 -33 22zM232 408q59 0 103.5 -45t44.5 -108v-255h-62v255q0 38 -26.5 64.5t-64.5 26.5t-65 -26.5
t-27 -64.5v-255h-62v400h62v-32q42 40 97 40z" />
    <glyph glyph-name="ograve" unicode="&#xf2;" horiz-adv-x="506" 
d="M278 452h-42l-118 148h72zM253 -8q-86 0 -147 61t-61 147t61 147t147 61t147 -61t61 -147t-61 -147t-147 -61zM253 54q60 0 103 42.5t43 103.5t-43 103.5t-103 42.5q-61 0 -103.5 -42.5t-42.5 -103.5t42.5 -103.5t103.5 -42.5z" />
    <glyph glyph-name="oacute" unicode="&#xf3;" horiz-adv-x="506" 
d="M228 452l88 148h72l-118 -148h-42zM253 -8q-86 0 -147 61t-61 147t61 147t147 61t147 -61t61 -147t-61 -147t-147 -61zM253 54q60 0 103 42.5t43 103.5t-43 103.5t-103 42.5q-61 0 -103.5 -42.5t-42.5 -103.5t42.5 -103.5t103.5 -42.5z" />
    <glyph glyph-name="ocircumflex" unicode="&#xf4;" horiz-adv-x="506" 
d="M191 452h-48l78 148h64l79 -148h-49l-62 107zM253 -8q-86 0 -147 61t-61 147t61 147t147 61t147 -61t61 -147t-61 -147t-147 -61zM253 54q60 0 103 42.5t43 103.5t-43 103.5t-103 42.5q-61 0 -103.5 -42.5t-42.5 -103.5t42.5 -103.5t103.5 -42.5z" />
    <glyph glyph-name="otilde" unicode="&#xf5;" horiz-adv-x="506" 
d="M306 467q-43 0 -73 44q-13 22 -33 22q-19 0 -29.5 -17.5t-10.5 -44.5h-46q0 47 23 77.5t61 30.5q42 0 73 -44q16 -22 35 -22q39 0 39 62h46q0 -47 -22.5 -77.5t-62.5 -30.5zM253 -8q-86 0 -147 61t-61 147t61 147t147 61t147 -61t61 -147t-61 -147t-147 -61zM253 54
q60 0 103 42.5t43 103.5t-43 103.5t-103 42.5q-61 0 -103.5 -42.5t-42.5 -103.5t42.5 -103.5t103.5 -42.5z" />
    <glyph glyph-name="odieresis" unicode="&#xf6;" horiz-adv-x="506" 
d="M181 475q-18 0 -31 12.5t-13 29.5q0 18 13 30.5t31 12.5t30.5 -12.5t12.5 -30.5q0 -17 -13 -29.5t-30 -12.5zM326 475q-17 0 -30 12.5t-13 29.5q0 18 12.5 30.5t30.5 12.5t30.5 -12t12.5 -31q0 -17 -12.5 -29.5t-30.5 -12.5zM253 -8q-86 0 -147 61t-61 147t61 147t147 61
t147 -61t61 -147t-61 -147t-147 -61zM253 54q60 0 103 42.5t43 103.5t-43 103.5t-103 42.5q-61 0 -103.5 -42.5t-42.5 -103.5t42.5 -103.5t103.5 -42.5z" />
    <glyph glyph-name="divide" unicode="&#xf7;" horiz-adv-x="590" 
d="M295 316q-16 0 -28 12t-12 28t12 28t28 12t28 -12t12 -28t-12 -28t-28 -12zM55 202v36h480v-36h-480zM295 44q-16 0 -28 12t-12 28t12 28t28 12t28 -12t12 -28t-12 -28t-28 -12z" />
    <glyph glyph-name="oslash" unicode="&#xf8;" horiz-adv-x="506" 
d="M388 359q73 -63 73 -159q0 -86 -61 -147t-147 -61q-54 0 -102 27l-36 -51l-32 20l37 52q-75 64 -75 160q0 86 61 147t147 61q56 0 104 -28l35 51l32 -20zM107 200q0 -64 48 -109l166 238q-31 17 -68 17q-61 0 -103.5 -42.5t-42.5 -103.5zM253 54q60 0 103 42.5t43 103.5
q0 65 -47 107l-166 -237q32 -16 67 -16z" />
    <glyph glyph-name="ugrave" unicode="&#xf9;" horiz-adv-x="419" 
d="M237 452h-42l-118 148h72zM210 -8q-68 0 -109 41.5t-41 110.5v256h61v-249q0 -44 25 -70.5t64 -26.5q40 0 64.5 26.5t24.5 70.5v249h61v-256q0 -69 -41.5 -110.5t-108.5 -41.5z" />
    <glyph glyph-name="uacute" unicode="&#xfa;" horiz-adv-x="419" 
d="M187 452l88 148h72l-118 -148h-42zM210 -8q-68 0 -109 41.5t-41 110.5v256h61v-249q0 -44 25 -70.5t64 -26.5q40 0 64.5 26.5t24.5 70.5v249h61v-256q0 -69 -41.5 -110.5t-108.5 -41.5z" />
    <glyph glyph-name="ucircumflex" unicode="&#xfb;" horiz-adv-x="419" 
d="M150 452h-48l78 148h64l79 -148h-49l-62 107zM210 -8q-68 0 -109 41.5t-41 110.5v256h61v-249q0 -44 25 -70.5t64 -26.5q40 0 64.5 26.5t24.5 70.5v249h61v-256q0 -69 -41.5 -110.5t-108.5 -41.5z" />
    <glyph glyph-name="udieresis" unicode="&#xfc;" horiz-adv-x="419" 
d="M140 475q-18 0 -31 12.5t-13 29.5q0 18 13 30.5t31 12.5t30.5 -12.5t12.5 -30.5q0 -17 -13 -29.5t-30 -12.5zM285 475q-17 0 -30 12.5t-13 29.5q0 18 12.5 30.5t30.5 12.5t30.5 -12t12.5 -31q0 -17 -12.5 -29.5t-30.5 -12.5zM210 -8q-68 0 -109 41.5t-41 110.5v256h61
v-249q0 -44 25 -70.5t64 -26.5q40 0 64.5 26.5t24.5 70.5v249h61v-256q0 -69 -41.5 -110.5t-108.5 -41.5z" />
    <glyph glyph-name="yacute" unicode="&#xfd;" horiz-adv-x="409" 
d="M340 600l-118 -148h-42l88 148h72zM330 400h70l-172 -430l-85 -210h-66l96 237l-164 403h69l128 -328z" />
    <glyph glyph-name="thorn" unicode="&#xfe;" horiz-adv-x="540" 
d="M287 408q86 0 147 -61t61 -147t-61 -147t-147 -61q-84 0 -146 60v-292h-62v904h62v-316q62 60 146 60zM287 54q60 0 103 42.5t43 103.5t-43 103.5t-103 42.5q-61 0 -103.5 -42.5t-42.5 -103.5t42.5 -103.5t103.5 -42.5z" />
    <glyph glyph-name="ydieresis" unicode="&#xff;" horiz-adv-x="409" 
d="M133 475q-18 0 -31 12.5t-13 29.5q0 18 13 30.5t31 12.5t30.5 -12.5t12.5 -30.5q0 -17 -13 -29.5t-30 -12.5zM278 475q-17 0 -30 12.5t-13 29.5q0 18 12.5 30.5t30.5 12.5t30.5 -12t12.5 -31q0 -17 -12.5 -29.5t-30.5 -12.5zM330 400h70l-172 -430l-85 -210h-66l96 237
l-164 403h69l128 -328z" />
    <glyph glyph-name="Amacron" unicode="&#x100;" horiz-adv-x="505" 
d="M360 725v-42h-215v42h215zM435 0l-49 140h-267l-49 -140h-70l217 600h71l217 -600h-70zM140 201h225l-112 323z" />
    <glyph glyph-name="amacron" unicode="&#x101;" horiz-adv-x="539" 
d="M360 525v-42h-215v42h215zM502 52h25v-52q-13 -8 -30 -8q-70 0 -92 69q-64 -69 -152 -69q-86 0 -147 61t-61 147t61 147t147 61t146 -60v52h62v-296q0 -26 11.5 -39t29.5 -13zM253 54q60 0 103 42.5t43 103.5t-43 103.5t-103 42.5q-61 0 -103.5 -42.5t-42.5 -103.5
t42.5 -103.5t103.5 -42.5z" />
    <glyph glyph-name="Abreve" unicode="&#x102;" horiz-adv-x="505" 
d="M252 653q-57 0 -94 33.5t-37 88.5h39q0 -34 26.5 -58t65.5 -24q40 0 66.5 24t26.5 58h39q0 -55 -37 -88.5t-95 -33.5zM435 0l-49 140h-267l-49 -140h-70l217 600h71l217 -600h-70zM140 201h225l-112 323z" />
    <glyph glyph-name="abreve" unicode="&#x103;" horiz-adv-x="539" 
d="M252 453q-57 0 -94 33.5t-37 88.5h39q0 -34 26.5 -58t65.5 -24q40 0 66.5 24t26.5 58h39q0 -55 -37 -88.5t-95 -33.5zM502 52h25v-52q-13 -8 -30 -8q-70 0 -92 69q-64 -69 -152 -69q-86 0 -147 61t-61 147t61 147t147 61t146 -60v52h62v-296q0 -26 11.5 -39t29.5 -13z
M253 54q60 0 103 42.5t43 103.5t-43 103.5t-103 42.5q-61 0 -103.5 -42.5t-42.5 -103.5t42.5 -103.5t103.5 -42.5z" />
    <glyph glyph-name="Aogonek" unicode="&#x104;" horiz-adv-x="505" 
d="M533 -136l22 -31q-45 -43 -106 -40q-41 2 -65 23.5t-24 59.5q0 63 94 124h-19l-49 140h-267l-49 -140h-70l217 600h71l217 -600q-49 -29 -75 -55.5t-26 -63.5q0 -24 14 -39t40 -15q47 0 75 37zM140 201h225l-112 323z" />
    <glyph glyph-name="aogonek" unicode="&#x105;" horiz-adv-x="539" 
d="M555 -136l22 -31q-45 -43 -106 -40q-41 2 -65 23.5t-24 59.5q0 61 87 120q-47 12 -64 65q-64 -69 -152 -69q-86 0 -147 61t-61 147t61 147t147 61t146 -60v52h62v-296q0 -26 11.5 -39t29.5 -13h25v-52q-1 0 -1 -0.5t-1 -0.5q-48 -29 -73.5 -55t-25.5 -63q0 -24 14 -39
t40 -15q47 0 75 37zM253 54q60 0 103 42.5t43 103.5t-43 103.5t-103 42.5q-61 0 -103.5 -42.5t-42.5 -103.5t42.5 -103.5t103.5 -42.5z" />
    <glyph glyph-name="Cacute" unicode="&#x106;" horiz-adv-x="658" 
d="M332 652l88 148h72l-118 -148h-42zM357 -8q-127 0 -217.5 90t-90.5 218t90.5 218t217.5 90q85 0 156 -42.5t112 -113.5l-55 -31q-31 56 -88 89.5t-125 33.5q-101 0 -172.5 -71t-71.5 -173t71.5 -173t172.5 -71q68 0 125 33.5t88 89.5l55 -31q-41 -71 -112 -113.5
t-156 -42.5z" />
    <glyph glyph-name="cacute" unicode="&#x107;" horiz-adv-x="477" 
d="M232 455l88 148h72l-118 -148h-42zM253 -8q-86 0 -147 61t-61 147t61 147t147 61q69 0 123.5 -40t74.5 -104h-66q-18 37 -53.5 59.5t-78.5 22.5q-61 0 -103.5 -42.5t-42.5 -103.5t42.5 -103.5t103.5 -42.5q43 0 78.5 22.5t53.5 59.5h66q-20 -64 -74.5 -104t-123.5 -40z
" />
    <glyph glyph-name="Cdotaccent" unicode="&#x10a;" horiz-adv-x="658" 
d="M357 660q-17 0 -30 12.5t-13 30.5t13 30.5t30 12.5t30 -12.5t13 -30.5t-13 -30.5t-30 -12.5zM357 -8q-127 0 -217.5 90t-90.5 218t90.5 218t217.5 90q85 0 156 -42.5t112 -113.5l-55 -31q-31 56 -88 89.5t-125 33.5q-101 0 -172.5 -71t-71.5 -173t71.5 -173t172.5 -71
q68 0 125 33.5t88 89.5l55 -31q-41 -71 -112 -113.5t-156 -42.5z" />
    <glyph glyph-name="cdotaccent" unicode="&#x10b;" horiz-adv-x="477" 
d="M257 463q-17 0 -30 12.5t-13 30.5t13 30.5t30 12.5t30 -12.5t13 -30.5t-13 -30.5t-30 -12.5zM253 -8q-86 0 -147 61t-61 147t61 147t147 61q69 0 123.5 -40t74.5 -104h-66q-18 37 -53.5 59.5t-78.5 22.5q-61 0 -103.5 -42.5t-42.5 -103.5t42.5 -103.5t103.5 -42.5
q43 0 78.5 22.5t53.5 59.5h66q-20 -64 -74.5 -104t-123.5 -40z" />
    <glyph glyph-name="Ccaron" unicode="&#x10c;" horiz-adv-x="658" 
d="M325 652l-78 148h48l62 -106l62 106h49l-79 -148h-64zM357 -8q-127 0 -217.5 90t-90.5 218t90.5 218t217.5 90q85 0 156 -42.5t112 -113.5l-55 -31q-31 56 -88 89.5t-125 33.5q-101 0 -172.5 -71t-71.5 -173t71.5 -173t172.5 -71q68 0 125 33.5t88 89.5l55 -31
q-41 -71 -112 -113.5t-156 -42.5z" />
    <glyph glyph-name="ccaron" unicode="&#x10d;" horiz-adv-x="477" 
d="M225 455l-78 148h48l62 -106l62 106h49l-79 -148h-64zM253 -8q-86 0 -147 61t-61 147t61 147t147 61q69 0 123.5 -40t74.5 -104h-66q-18 37 -53.5 59.5t-78.5 22.5q-61 0 -103.5 -42.5t-42.5 -103.5t42.5 -103.5t103.5 -42.5q43 0 78.5 22.5t53.5 59.5h66
q-20 -64 -74.5 -104t-123.5 -40z" />
    <glyph glyph-name="Dcaron" unicode="&#x10e;" horiz-adv-x="586" 
d="M204 652l-78 148h48l62 -106l62 106h49l-79 -148h-64zM73 0v600h164q124 0 212 -88t88 -212t-88 -212t-212 -88h-164zM136 64h100q100 0 168.5 67.5t68.5 168.5t-68.5 168.5t-168.5 67.5h-100v-472z" />
    <glyph glyph-name="dcaron" unicode="&#x10f;" horiz-adv-x="638" 
d="M399 348v388h62v-736h-62v52q-62 -60 -146 -60q-86 0 -147 61t-61 147t61 147t147 61q84 0 146 -60zM574 736h71l-91 -241h-45zM253 54q60 0 103 42.5t43 103.5t-43 103.5t-103 42.5q-61 0 -103.5 -42.5t-42.5 -103.5t42.5 -103.5t103.5 -42.5z" />
    <glyph glyph-name="Dcroat" unicode="&#x110;" horiz-adv-x="586" 
d="M237 600q124 0 212 -88t88 -212t-88 -212t-212 -88h-164v271h-62v60h62v269h164zM236 64q100 0 168.5 67.5t68.5 168.5t-68.5 168.5t-168.5 67.5h-100v-205h107v-60h-107v-207h100z" />
    <glyph glyph-name="dcroat" unicode="&#x111;" horiz-adv-x="534" 
d="M515 583v-60h-54v-523h-62v52q-62 -60 -146 -60q-86 0 -147 61t-61 147t61 147t147 61q84 0 146 -60v175h-116v60h116v153h62v-153h54zM253 54q60 0 103 42.5t43 103.5t-43 103.5t-103 42.5q-61 0 -103.5 -42.5t-42.5 -103.5t42.5 -103.5t103.5 -42.5z" />
    <glyph glyph-name="Emacron" unicode="&#x112;" horiz-adv-x="466" 
d="M349 725v-42h-215v42h215zM406 538h-264v-207h230v-62h-230v-207h264v-62h-328v600h328v-62z" />
    <glyph glyph-name="emacron" unicode="&#x113;" horiz-adv-x="502" 
d="M364 529v-42h-215v42h215zM461 204l-1 -13h-353q3 -58 45 -97.5t101 -39.5q45 0 81 24t53 63h66q-20 -65 -75 -107t-125 -42q-86 0 -147 61t-61 147t61 147t147 61t146 -59t62 -145zM253 346q-47 0 -85 -27.5t-53 -71.5h275q-14 44 -51.5 71.5t-85.5 27.5z" />
    <glyph glyph-name="Edotaccent" unicode="&#x116;" horiz-adv-x="466" 
d="M242 660q-17 0 -30 12.5t-13 30.5t13 30.5t30 12.5t30 -12.5t13 -30.5t-13 -30.5t-30 -12.5zM406 538h-264v-207h230v-62h-230v-207h264v-62h-328v600h328v-62z" />
    <glyph glyph-name="edotaccent" unicode="&#x117;" horiz-adv-x="502" 
d="M257 464q-17 0 -30 12.5t-13 30.5t13 30.5t30 12.5t30 -12.5t13 -30.5t-13 -30.5t-30 -12.5zM461 204l-1 -13h-353q3 -58 45 -97.5t101 -39.5q45 0 81 24t53 63h66q-20 -65 -75 -107t-125 -42q-86 0 -147 61t-61 147t61 147t147 61t146 -59t62 -145zM253 346
q-47 0 -85 -27.5t-53 -71.5h275q-14 44 -51.5 71.5t-85.5 27.5z" />
    <glyph glyph-name="Eogonek" unicode="&#x118;" horiz-adv-x="466" 
d="M434 -136l22 -31q-45 -43 -106 -40q-41 2 -65 23.5t-24 59.5q0 63 94 124h-277v600h328v-62h-264v-207h230v-62h-230v-207h264v-62q-49 -29 -75 -55.5t-26 -63.5q0 -24 14 -39t40 -15q47 0 75 37z" />
    <glyph glyph-name="eogonek" unicode="&#x119;" horiz-adv-x="502" 
d="M461 204l-1 -13h-353q3 -58 45 -97.5t101 -39.5q45 0 81 24t53 63h66q-31 -98 -123 -134q-79 -50 -79 -106q0 -24 14 -39t40 -15q47 0 75 37l22 -31q-45 -43 -106 -40q-41 2 -65 23.5t-24 59.5q0 51 55 96h-9q-86 0 -147 61t-61 147t61 147t147 61t146 -59t62 -145z
M253 346q-47 0 -85 -27.5t-53 -71.5h275q-14 44 -51.5 71.5t-85.5 27.5z" />
    <glyph glyph-name="Ecaron" unicode="&#x11a;" horiz-adv-x="466" 
d="M274 652h-64l-78 148h48l62 -106l62 106h49zM406 538h-264v-207h230v-62h-230v-207h264v-62h-328v600h328v-62z" />
    <glyph glyph-name="ecaron" unicode="&#x11b;" horiz-adv-x="502" 
d="M289 456h-64l-78 148h48l62 -106l62 106h49zM461 204l-1 -13h-353q3 -58 45 -97.5t101 -39.5q45 0 81 24t53 63h66q-20 -65 -75 -107t-125 -42q-86 0 -147 61t-61 147t61 147t147 61t146 -59t62 -145zM253 346q-47 0 -85 -27.5t-53 -71.5h275q-14 44 -51.5 71.5
t-85.5 27.5z" />
    <glyph glyph-name="Gbreve" unicode="&#x11e;" horiz-adv-x="719" 
d="M359 653q-57 0 -94 33.5t-37 88.5h39q0 -34 26.5 -58t65.5 -24q40 0 66.5 24t26.5 58h39q0 -55 -37 -88.5t-95 -33.5zM359 318h309v-18q0 -128 -90 -218t-218 -90t-218 90t-90 218t90 218t218 90q85 0 156 -42.5t111 -113.5l-55 -31q-31 56 -88 89.5t-124 33.5
q-101 0 -172.5 -71t-71.5 -173t71.5 -173t172.5 -71q90 0 158 57.5t82 144.5h-241v60z" />
    <glyph glyph-name="gbreve" unicode="&#x11f;" horiz-adv-x="534" 
d="M252 453q-57 0 -94 33.5t-37 88.5h39q0 -34 26.5 -58t65.5 -24q40 0 66.5 24t26.5 58h39q0 -55 -37 -88.5t-95 -33.5zM398 400h63v-435q0 -86 -61 -147t-147 -61q-67 0 -120.5 38.5t-75.5 99.5l57 25q14 -44 52.5 -72.5t86.5 -28.5q60 0 103 43t43 103v87
q-62 -60 -146 -60q-86 0 -147 61t-61 147q0 87 61 147.5t147 60.5q85 0 145 -58v50zM253 54q60 0 103 43t43 103q0 61 -43 103.5t-103 42.5q-61 0 -103.5 -42.5t-42.5 -103.5q0 -60 42.5 -103t103.5 -43z" />
    <glyph glyph-name="Gdotaccent" unicode="&#x120;" horiz-adv-x="719" 
d="M360 660q-17 0 -30 12.5t-13 30.5t13 30.5t30 12.5t30 -12.5t13 -30.5t-13 -30.5t-30 -12.5zM359 318h309v-18q0 -128 -90 -218t-218 -90t-218 90t-90 218t90 218t218 90q85 0 156 -42.5t111 -113.5l-55 -31q-31 56 -88 89.5t-124 33.5q-101 0 -172.5 -71t-71.5 -173
t71.5 -173t172.5 -71q90 0 158 57.5t82 144.5h-241v60z" />
    <glyph glyph-name="gdotaccent" unicode="&#x121;" horiz-adv-x="534" 
d="M253 460q-17 0 -30 12.5t-13 30.5t13 30.5t30 12.5t30 -12.5t13 -30.5t-13 -30.5t-30 -12.5zM398 400h63v-435q0 -86 -61 -147t-147 -61q-67 0 -120.5 38.5t-75.5 99.5l57 25q14 -44 52.5 -72.5t86.5 -28.5q60 0 103 43t43 103v87q-62 -60 -146 -60q-86 0 -147 61
t-61 147q0 87 61 147.5t147 60.5q85 0 145 -58v50zM253 54q60 0 103 43t43 103q0 61 -43 103.5t-103 42.5q-61 0 -103.5 -42.5t-42.5 -103.5q0 -60 42.5 -103t103.5 -43z" />
    <glyph glyph-name="Gcommaaccent" unicode="&#x122;" horiz-adv-x="719" 
d="M359 318h309v-18q0 -128 -90 -218t-218 -90t-218 90t-90 218t90 218t218 90q85 0 156 -42.5t111 -113.5l-55 -31q-31 56 -88 89.5t-124 33.5q-101 0 -172.5 -71t-71.5 -173t71.5 -173t172.5 -71q90 0 158 57.5t82 144.5h-241v60zM261 -189l60 141h78l-94 -141h-44z" />
    <glyph glyph-name="gcommaaccent" unicode="&#x123;" horiz-adv-x="534" 
d="M349 596l-60 -141h-78l94 141h44zM398 400h63v-435q0 -86 -61 -147t-147 -61q-67 0 -120.5 38.5t-75.5 99.5l57 25q14 -44 52.5 -72.5t86.5 -28.5q60 0 103 43t43 103v87q-62 -60 -146 -60q-86 0 -147 61t-61 147q0 87 61 147.5t147 60.5q85 0 145 -58v50zM253 54
q60 0 103 43t43 103q0 61 -43 103.5t-103 42.5q-61 0 -103.5 -42.5t-42.5 -103.5q0 -60 42.5 -103t103.5 -43z" />
    <glyph glyph-name="Hbar" unicode="&#x126;" horiz-adv-x="605" 
d="M587 490v-44h-55v-446h-64v268h-331v-268h-64v446h-56v44h56v110h64v-110h331v110h64v-110h55zM468 332v114h-331v-114h331z" />
    <glyph glyph-name="hbar" unicode="&#x127;" horiz-adv-x="443" 
d="M224 408q63 0 107 -44t44 -108v-256h-61v256q0 38 -26.5 64t-63.5 26t-63 -26t-26 -64v-256h-62v529h-55v60h55v147h62v-147h115v-60h-115v-150q40 29 89 29z" />
    <glyph glyph-name="Imacron" unicode="&#x12a;" horiz-adv-x="219" 
d="M2 683v42h215v-42h-215zM78 0v600h64v-600h-64z" />
    <glyph glyph-name="imacron" unicode="&#x12b;" horiz-adv-x="219" 
d="M2 483v42h215v-42h-215zM79 0v400h62v-400h-62z" />
    <glyph glyph-name="Iogonek" unicode="&#x12e;" horiz-adv-x="219" 
d="M170 -136l22 -31q-45 -43 -106 -40q-41 2 -65 23.5t-24 59.5q0 63 94 124h-13v600h64v-600q-49 -29 -75 -55.5t-26 -63.5q0 -24 14 -39t40 -15q47 0 75 37z" />
    <glyph glyph-name="iogonek" unicode="&#x12f;" horiz-adv-x="219" 
d="M110 460q-17 0 -30 12.5t-13 30.5t13 30.5t30 12.5t30 -12.5t13 -30.5t-13 -30.5t-30 -12.5zM163 -136l22 -31q-45 -43 -106 -40q-41 2 -65 23.5t-24 59.5q0 63 94 124h-5v400h62v-400h-6q-49 -29 -75 -55.5t-26 -63.5q0 -24 14 -39t40 -15q47 0 75 37z" />
    <glyph glyph-name="Idotaccent" unicode="&#x130;" horiz-adv-x="219" 
d="M110 660q-17 0 -30 12.5t-13 30.5t13 30.5t30 12.5t30 -12.5t13 -30.5t-13 -30.5t-30 -12.5zM78 0v600h64v-600h-64z" />
    <glyph glyph-name="dotlessi" unicode="&#x131;" horiz-adv-x="219" 
d="M79 0v400h62v-400h-62z" />
    <glyph glyph-name="Kcommaaccent" unicode="&#x136;" horiz-adv-x="513" 
d="M235 323l285 -323h-89l-251 294h-43v-294h-64v600h64v-246h42l241 246h89zM159 -189l60 141h78l-94 -141h-44z" />
    <glyph glyph-name="kcommaaccent" unicode="&#x137;" horiz-adv-x="413" 
d="M220 222l203 -222h-85l-197 223v-223h-62v736h62v-511l182 175h83zM118 -189l60 141h78l-94 -141h-44z" />
    <glyph glyph-name="Lacute" unicode="&#x139;" horiz-adv-x="369" 
d="M240 800l-118 -148h-42l88 148h72zM137 64h223v-64h-287v600h64v-536z" />
    <glyph glyph-name="lacute" unicode="&#x13a;" horiz-adv-x="208" 
d="M79 788l88 148h72l-118 -148h-42zM73 0v736h62v-736h-62z" />
    <glyph glyph-name="Lcommaaccent" unicode="&#x13b;" horiz-adv-x="369" 
d="M137 64h223v-64h-287v600h64v-536zM118 -189l60 141h78l-94 -141h-44z" />
    <glyph glyph-name="lcommaaccent" unicode="&#x13c;" horiz-adv-x="208" 
d="M73 0v736h62v-736h-62zM49 -189h-44l60 141h78z" />
    <glyph glyph-name="Lcaron" unicode="&#x13d;" horiz-adv-x="369" 
d="M137 64h223v-64h-287v600h64v-536zM354 600l-91 -241h-45l65 241h71z" />
    <glyph glyph-name="lcaron" unicode="&#x13e;" horiz-adv-x="307" 
d="M73 0v736h62v-736h-62zM222 495h-45l65 241h71z" />
    <glyph glyph-name="ldot" unicode="&#x140;" horiz-adv-x="208" 
d="M73 0v736h62v-736h-62zM207 253q-14 0 -24.5 10t-10.5 25q0 14 10.5 24.5t24.5 10.5t25 -10.5t11 -24.5q0 -15 -10.5 -25t-25.5 -10z" />
    <glyph glyph-name="Lslash" unicode="&#x141;" horiz-adv-x="369" 
d="M137 64h223v-64h-287v232l-57 -60l-34 29l91 97v302h64v-234l58 62l35 -29l-93 -99v-236z" />
    <glyph glyph-name="lslash" unicode="&#x142;" horiz-adv-x="208" 
d="M228 466l-93 -99v-367h-62v302l-59 -63l-34 29l93 99v369h62v-303l58 62z" />
    <glyph glyph-name="Nacute" unicode="&#x143;" horiz-adv-x="640" 
d="M453 800l-118 -148h-42l88 148h72zM504 600h63v-600h-60l-370 493v-493h-64v600h60l371 -493v493z" />
    <glyph glyph-name="nacute" unicode="&#x144;" horiz-adv-x="448" 
d="M362 600l-118 -148h-42l88 148h72zM232 408q59 0 103.5 -45t44.5 -108v-255h-62v255q0 38 -26.5 64.5t-64.5 26.5t-65 -26.5t-27 -64.5v-255h-62v400h62v-32q42 40 97 40z" />
    <glyph glyph-name="Ncommaaccent" unicode="&#x145;" horiz-adv-x="640" 
d="M504 600h63v-600h-60l-370 493v-493h-64v600h60l371 -493v493zM224 -189l60 141h78l-94 -141h-44z" />
    <glyph glyph-name="ncommaaccent" unicode="&#x146;" horiz-adv-x="448" 
d="M232 408q59 0 103.5 -45t44.5 -108v-255h-62v255q0 38 -26.5 64.5t-64.5 26.5t-65 -26.5t-27 -64.5v-255h-62v400h62v-32q42 40 97 40zM129 -189l60 141h78l-94 -141h-44z" />
    <glyph glyph-name="Ncaron" unicode="&#x147;" horiz-adv-x="640" 
d="M350 652h-64l-78 148h48l62 -106l62 106h49zM504 600h63v-600h-60l-370 493v-493h-64v600h60l371 -493v493z" />
    <glyph glyph-name="ncaron" unicode="&#x148;" horiz-adv-x="448" 
d="M259 452h-64l-78 148h48l62 -106l62 106h49zM232 408q59 0 103.5 -45t44.5 -108v-255h-62v255q0 38 -26.5 64.5t-64.5 26.5t-65 -26.5t-27 -64.5v-255h-62v400h62v-32q42 40 97 40z" />
    <glyph glyph-name="Eng" unicode="&#x14a;" horiz-adv-x="640" 
d="M504 600h63v-600v-88q0 -62 -26.5 -87t-85.5 -24v57q24 -1 38 11.5t14 47.5v83l-370 493v-493h-64v600h60l371 -493v493z" />
    <glyph glyph-name="eng" unicode="&#x14b;" horiz-adv-x="448" 
d="M232 408q59 0 103.5 -45t44.5 -108v-255v-104q0 -61 -27 -86.5t-86 -24.5v42q24 -1 37.5 11.5t13.5 47.5v115v254q0 38 -26.5 64.5t-64.5 26.5t-65 -26.5t-27 -64.5v-255h-62v400h62v-32q42 40 97 40z" />
    <glyph glyph-name="Omacron" unicode="&#x14c;" horiz-adv-x="715" 
d="M249 683v42h215v-42h-215zM357 -8q-127 0 -217.5 90t-90.5 218t90.5 218t217.5 90q128 0 218 -90t90 -218t-90 -218t-218 -90zM357 56q102 0 173 71t71 173t-71 173t-173 71q-101 0 -172.5 -71t-71.5 -173t71.5 -173t172.5 -71z" />
    <glyph glyph-name="omacron" unicode="&#x14d;" horiz-adv-x="506" 
d="M145 483v42h215v-42h-215zM253 -8q-86 0 -147 61t-61 147t61 147t147 61t147 -61t61 -147t-61 -147t-147 -61zM253 54q60 0 103 42.5t43 103.5t-43 103.5t-103 42.5q-61 0 -103.5 -42.5t-42.5 -103.5t42.5 -103.5t103.5 -42.5z" />
    <glyph glyph-name="Ohungarumlaut" unicode="&#x150;" horiz-adv-x="715" 
d="M265 652l87 148h72l-117 -148h-42zM395 652l87 148h72l-117 -148h-42zM357 -8q-127 0 -217.5 90t-90.5 218t90.5 218t217.5 90q128 0 218 -90t90 -218t-90 -218t-218 -90zM357 56q102 0 173 71t71 173t-71 173t-173 71q-101 0 -172.5 -71t-71.5 -173t71.5 -173t172.5 -71
z" />
    <glyph glyph-name="ohungarumlaut" unicode="&#x151;" horiz-adv-x="506" 
d="M161 452l87 148h72l-117 -148h-42zM291 452l87 148h72l-117 -148h-42zM253 -8q-86 0 -147 61t-61 147t61 147t147 61t147 -61t61 -147t-61 -147t-147 -61zM253 54q60 0 103 42.5t43 103.5t-43 103.5t-103 42.5q-61 0 -103.5 -42.5t-42.5 -103.5t42.5 -103.5t103.5 -42.5z
" />
    <glyph glyph-name="OE" unicode="&#x152;" horiz-adv-x="837" 
d="M777 538h-265v-207h231v-62h-231v-207h265v-62h-318v9q-49 -17 -102 -17q-127 0 -217.5 90t-90.5 218t90.5 218t217.5 90q53 0 102 -17v9h318v-62zM358 54q51 0 101 21v450q-50 21 -101 21q-103 0 -175 -72t-72 -174t72 -174t175 -72z" />
    <glyph glyph-name="oe" unicode="&#x153;" horiz-adv-x="858" 
d="M817 204l-1 -13h-353q3 -58 45 -97.5t101 -39.5q45 0 81 24t53 63h66q-20 -65 -75 -107t-125 -42q-56 0 -103.5 27t-74.5 73q-27 -46 -74.5 -73t-103.5 -27q-86 0 -147 61t-61 147t61 147t147 61q56 0 103.5 -27t74.5 -73q27 46 74.5 73t103.5 27q86 0 146 -59t62 -145z
M253 54q60 0 103 42.5t43 103.5t-43 103.5t-103 42.5q-61 0 -103.5 -42.5t-42.5 -103.5t42.5 -103.5t103.5 -42.5zM609 346q-47 0 -85 -27.5t-53 -71.5h275q-14 44 -51.5 71.5t-85.5 27.5z" />
    <glyph glyph-name="Racute" unicode="&#x154;" horiz-adv-x="502" 
d="M386 800l-118 -148h-42l88 148h72zM316 274l177 -274h-73l-170 271h-113v-271h-64v600h215q69 0 118 -49t49 -119q0 -60 -39.5 -105t-99.5 -53zM137 332h147q46 0 76.5 28.5t30.5 73.5t-30.5 73.5t-76.5 28.5h-147v-204z" />
    <glyph glyph-name="racute" unicode="&#x155;" horiz-adv-x="304" 
d="M313 600l-118 -148h-42l88 148h72zM135 343q49 65 133 65q18 0 31 -3v-63q-12 4 -31 4q-55 0 -94 -37.5t-39 -91.5v-217h-62v400h62v-57z" />
    <glyph glyph-name="Rcommaaccent" unicode="&#x156;" horiz-adv-x="502" 
d="M316 274l177 -274h-73l-170 271h-113v-271h-64v600h215q69 0 118 -49t49 -119q0 -60 -39.5 -105t-99.5 -53zM137 332h147q46 0 76.5 28.5t30.5 73.5t-30.5 73.5t-76.5 28.5h-147v-204zM152 -189l60 141h78l-94 -141h-44z" />
    <glyph glyph-name="rcommaaccent" unicode="&#x157;" horiz-adv-x="304" 
d="M268 408q18 0 31 -3v-63q-12 4 -31 4q-55 0 -94 -37.5t-39 -91.5v-217h-62v400h62v-57q49 65 133 65zM5 -189l60 141h78l-94 -141h-44z" />
    <glyph glyph-name="Rcaron" unicode="&#x158;" horiz-adv-x="502" 
d="M283 652h-64l-78 148h48l62 -106l62 106h49zM316 274l177 -274h-73l-170 271h-113v-271h-64v600h215q69 0 118 -49t49 -119q0 -60 -39.5 -105t-99.5 -53zM137 332h147q46 0 76.5 28.5t30.5 73.5t-30.5 73.5t-76.5 28.5h-147v-204z" />
    <glyph glyph-name="rcaron" unicode="&#x159;" horiz-adv-x="304" 
d="M210 452h-64l-78 148h48l62 -106l62 106h49zM268 408q18 0 31 -3v-63q-12 4 -31 4q-55 0 -94 -37.5t-39 -91.5v-217h-62v400h62v-57q49 65 133 65z" />
    <glyph glyph-name="Sacute" unicode="&#x15a;" horiz-adv-x="438" 
d="M198 652l88 148h72l-118 -148h-42zM224 -8q-66 0 -119 33t-76 89l58 34q16 -42 52 -67t86 -25q52 0 86 26.5t34 73.5q0 35 -21.5 60.5t-54 39t-70.5 31t-70.5 34.5t-54 50.5t-21.5 78.5q0 72 48 115t119 43q50 0 92 -21t68 -54l-50 -42q-37 53 -108 53q-45 0 -75 -23
t-30 -66q0 -33 21.5 -57.5t54 -37.5t70.5 -30.5t70.5 -35.5t54 -53t21.5 -83q0 -76 -53 -121t-132 -45z" />
    <glyph glyph-name="sacute" unicode="&#x15b;" horiz-adv-x="331" 
d="M149 452l88 148h72l-118 -148h-42zM172 -8q-48 0 -88 25.5t-51 61.5l60 24q4 -21 27.5 -35.5t51.5 -14.5t47 15t19 40q0 22 -16.5 35t-57.5 29q-57 22 -85 49.5t-28 72.5q0 52 34.5 83t81.5 31q38 0 72 -19.5t45 -46.5l-54 -28q-17 32 -60 32q-56 0 -56 -50
q0 -24 15.5 -36.5t58.5 -30.5q24 -10 40 -18.5t34.5 -22.5t28 -34t9.5 -46q0 -51 -37 -83.5t-91 -32.5z" />
    <glyph glyph-name="Scedilla" unicode="&#x15e;" horiz-adv-x="438" 
d="M409 158q0 -75 -50.5 -119.5t-127.5 -46.5l-22 -45q41 8 70 -13t29 -59q0 -35 -23.5 -59t-58.5 -24q-27 0 -54 15t-38 37l34 14q9 -12 26 -20.5t32 -8.5q19 0 32 13.5t13 32.5q0 27 -23 37.5t-56 -2.5l-30 20l32 64q-57 7 -101 39t-64 81l58 34q16 -42 52 -67t86 -25
q52 0 86 26.5t34 73.5q0 35 -21.5 60.5t-54 39t-70.5 31t-70.5 34.5t-54 50.5t-21.5 78.5q0 72 48 115t119 43q50 0 92 -21t68 -54l-50 -42q-37 53 -108 53q-45 0 -75 -23t-30 -66q0 -33 21.5 -57.5t54 -37.5t70.5 -30.5t70.5 -35.5t54 -53t21.5 -83z" />
    <glyph glyph-name="scedilla" unicode="&#x15f;" horiz-adv-x="331" 
d="M300 108q0 -47 -32.5 -78.5t-80.5 -36.5l-22 -46q41 8 70 -13t29 -59q0 -35 -23.5 -59t-58.5 -24q-27 0 -54 15t-38 37l34 14q9 -12 26 -20.5t32 -8.5q19 0 32 13.5t13 32.5q0 27 -23 37.5t-56 -2.5l-30 20l32 64q-41 5 -74 29t-43 56l60 24q4 -21 27.5 -35.5t51.5 -14.5
t47 15t19 40q0 22 -16.5 35t-57.5 29q-57 22 -85 49.5t-28 72.5q0 52 34.5 83t81.5 31q38 0 72 -19.5t45 -46.5l-54 -28q-17 32 -60 32q-56 0 -56 -50q0 -24 15.5 -36.5t58.5 -30.5q24 -10 40 -18.5t34.5 -22.5t28 -34t9.5 -46z" />
    <glyph glyph-name="Scaron" unicode="&#x160;" horiz-adv-x="438" 
d="M191 652l-78 148h48l62 -106l62 106h49l-79 -148h-64zM224 -8q-66 0 -119 33t-76 89l58 34q16 -42 52 -67t86 -25q52 0 86 26.5t34 73.5q0 35 -21.5 60.5t-54 39t-70.5 31t-70.5 34.5t-54 50.5t-21.5 78.5q0 72 48 115t119 43q50 0 92 -21t68 -54l-50 -42q-37 53 -108 53
q-45 0 -75 -23t-30 -66q0 -33 21.5 -57.5t54 -37.5t70.5 -30.5t70.5 -35.5t54 -53t21.5 -83q0 -76 -53 -121t-132 -45z" />
    <glyph glyph-name="scaron" unicode="&#x161;" horiz-adv-x="331" 
d="M142 452l-78 148h48l62 -106l62 106h49l-79 -148h-64zM172 -8q-48 0 -88 25.5t-51 61.5l60 24q4 -21 27.5 -35.5t51.5 -14.5t47 15t19 40q0 22 -16.5 35t-57.5 29q-57 22 -85 49.5t-28 72.5q0 52 34.5 83t81.5 31q38 0 72 -19.5t45 -46.5l-54 -28q-17 32 -60 32
q-56 0 -56 -50q0 -24 15.5 -36.5t58.5 -30.5q24 -10 40 -18.5t34.5 -22.5t28 -34t9.5 -46q0 -51 -37 -83.5t-91 -32.5z" />
    <glyph glyph-name="uni0162" unicode="&#x162;" horiz-adv-x="414" 
d="M239 0h-13l-26 -53q41 8 70 -13t29 -59q0 -35 -23.5 -59t-58.5 -24q-27 0 -54 15t-38 37l34 14q9 -12 26 -20.5t32 -8.5q19 0 32 13.5t13 32.5q0 27 -23 37.5t-56 -2.5l-30 20l35 70h-13v536h-166v64h396v-64h-166v-536z" />
    <glyph glyph-name="uni0163" unicode="&#x163;" horiz-adv-x="290" 
d="M196 -53q41 8 70 -13t29 -59q0 -35 -23.5 -59t-58.5 -24q-27 0 -54 15t-38 37l34 14q9 -12 26 -20.5t32 -8.5q19 0 32 13.5t13 32.5q0 27 -23 37.5t-56 -2.5l-30 20l32 64q-40 8 -66.5 39t-26.5 72v235h-67v60h67v174h62v-174h107v-60h-107v-227q0 -27 17.5 -44t42.5 -17
h46v-47q-14 -9 -37 -12z" />
    <glyph glyph-name="Tcaron" unicode="&#x164;" horiz-adv-x="414" 
d="M239 652h-64l-78 148h48l62 -106l62 106h49zM405 600v-64h-166v-536h-64v536h-166v64h396z" />
    <glyph glyph-name="tcaron" unicode="&#x165;" horiz-adv-x="363" 
d="M297 672h71l-91 -241h-45zM150 574v-174h107v-60h-107v-227q0 -27 17.5 -44t42.5 -17h46v-47q-20 -13 -53 -13q-47 0 -81 33t-34 80v235h-67v60h67v174h62z" />
    <glyph glyph-name="Tbar" unicode="&#x166;" horiz-adv-x="414" 
d="M405 536h-166v-205h83v-60h-83v-271h-64v271h-85v60h85v205h-166v64h396v-64z" />
    <glyph glyph-name="tbar" unicode="&#x167;" horiz-adv-x="290" 
d="M257 340h-107v-109h102v-60h-102v-58q0 -27 17.5 -44t42.5 -17h46v-47q-20 -13 -53 -13q-47 0 -81 33t-34 80v66h-68v60h68v109h-67v60h67v174h62v-174h107v-60z" />
    <glyph glyph-name="Umacron" unicode="&#x16a;" horiz-adv-x="591" 
d="M187 683v42h215v-42h-215zM295 -8q-97 0 -161 58t-64 147v403h64v-393q0 -65 45.5 -108t115.5 -43t116 43t46 108v393h64v-403q0 -89 -64 -147t-162 -58z" />
    <glyph glyph-name="umacron" unicode="&#x16b;" horiz-adv-x="419" 
d="M104 483v42h215v-42h-215zM210 -8q-68 0 -109 41.5t-41 110.5v256h61v-249q0 -44 25 -70.5t64 -26.5q40 0 64.5 26.5t24.5 70.5v249h61v-256q0 -69 -41.5 -110.5t-108.5 -41.5z" />
    <glyph glyph-name="Uring" unicode="&#x16e;" horiz-adv-x="591" 
d="M295 638q-34 0 -59 24.5t-25 58.5t24.5 58.5t59.5 24.5q34 0 58 -24.5t24 -58.5t-24 -58.5t-58 -24.5zM295 672q20 0 34 14t14 35q0 20 -14.5 35t-33.5 15q-21 0 -35 -14.5t-14 -35.5t14 -35t35 -14zM295 -8q-97 0 -161 58t-64 147v403h64v-393q0 -65 45.5 -108
t115.5 -43t116 43t46 108v393h64v-403q0 -89 -64 -147t-162 -58z" />
    <glyph glyph-name="uring" unicode="&#x16f;" horiz-adv-x="419" 
d="M212 438q-34 0 -59 24.5t-25 58.5t24.5 58.5t59.5 24.5q34 0 58 -24.5t24 -58.5t-24 -58.5t-58 -24.5zM212 472q20 0 34 14t14 35q0 20 -14.5 35t-33.5 15q-21 0 -35 -14.5t-14 -35.5t14 -35t35 -14zM210 -8q-68 0 -109 41.5t-41 110.5v256h61v-249q0 -44 25 -70.5
t64 -26.5q40 0 64.5 26.5t24.5 70.5v249h61v-256q0 -69 -41.5 -110.5t-108.5 -41.5z" />
    <glyph glyph-name="Uhungarumlaut" unicode="&#x170;" horiz-adv-x="591" 
d="M203 652l87 148h72l-117 -148h-42zM333 652l87 148h72l-117 -148h-42zM295 -8q-97 0 -161 58t-64 147v403h64v-393q0 -65 45.5 -108t115.5 -43t116 43t46 108v393h64v-403q0 -89 -64 -147t-162 -58z" />
    <glyph glyph-name="uhungarumlaut" unicode="&#x171;" horiz-adv-x="419" 
d="M120 452l87 148h72l-117 -148h-42zM250 452l87 148h72l-117 -148h-42zM210 -8q-68 0 -109 41.5t-41 110.5v256h61v-249q0 -44 25 -70.5t64 -26.5q40 0 64.5 26.5t24.5 70.5v249h61v-256q0 -69 -41.5 -110.5t-108.5 -41.5z" />
    <glyph glyph-name="Uogonek" unicode="&#x172;" horiz-adv-x="591" 
d="M457 600h64v-403q0 -65 -35 -115t-96 -73q-44 -26 -67.5 -51.5t-23.5 -61.5q0 -24 14 -39t40 -15q47 0 75 37l22 -31q-45 -43 -106 -40q-41 2 -65 23.5t-24 59.5q0 53 62 102q-7 -1 -22 -1q-97 0 -161 58t-64 147v403h64v-393q0 -65 45.5 -108t115.5 -43t116 43t46 108
v393z" />
    <glyph glyph-name="uogonek" unicode="&#x173;" horiz-adv-x="419" 
d="M274 4q-67 -46 -67 -98q0 -24 14 -39t40 -15q47 0 75 37l22 -31q-45 -43 -106 -40q-41 2 -65 23.5t-24 59.5q0 49 49 91h-2q-68 0 -109 41.5t-41 110.5v256h61v-249q0 -44 25 -70.5t64 -26.5q40 0 64.5 26.5t24.5 70.5v249h61v-256q0 -51 -23 -87.5t-63 -52.5z" />
    <glyph glyph-name="Wcircumflex" unicode="&#x174;" horiz-adv-x="809" 
d="M406 759l-62 -107h-48l78 148h64l79 -148h-49zM749 600h66l-187 -600h-67l-157 532l-154 -532h-68l-188 600h68l153 -492l144 492h65h25l146 -493z" />
    <glyph glyph-name="wcircumflex" unicode="&#x175;" horiz-adv-x="642" 
d="M322 559l-62 -107h-48l78 148h64l79 -148h-49zM566 400h67l-137 -400h-68l-106 314l-107 -314h-68l-138 400h70l104 -326l109 326h59l109 -328z" />
    <glyph glyph-name="Ycircumflex" unicode="&#x176;" horiz-adv-x="485" 
d="M243 759l-62 -107h-48l78 148h64l79 -148h-49zM484 600l-209 -315v-285h-64v284l-210 316h80l162 -249l162 249h79z" />
    <glyph glyph-name="ycircumflex" unicode="&#x177;" horiz-adv-x="409" 
d="M205 559l-62 -107h-48l78 148h64l79 -148h-49zM330 400h70l-172 -430l-85 -210h-66l96 237l-164 403h69l128 -328z" />
    <glyph glyph-name="Ydieresis" unicode="&#x178;" horiz-adv-x="485" 
d="M171 675q-18 0 -31 12.5t-13 29.5q0 18 13 30.5t31 12.5t30.5 -12.5t12.5 -30.5q0 -17 -13 -29.5t-30 -12.5zM316 675q-17 0 -30 12.5t-13 29.5q0 18 12.5 30.5t30.5 12.5t30.5 -12t12.5 -31q0 -17 -12.5 -29.5t-30.5 -12.5zM484 600l-209 -315v-285h-64v284l-210 316h80
l162 -249l162 249h79z" />
    <glyph glyph-name="Zacute" unicode="&#x179;" horiz-adv-x="528" 
d="M402 800l-118 -148h-42l88 148h72zM151 64h340v-64h-454l329 536h-305v64h418z" />
    <glyph glyph-name="zacute" unicode="&#x17a;" horiz-adv-x="412" 
d="M349 600l-118 -148h-42l88 148h72zM379 400l-230 -338h230v-62h-346l230 338h-214v62h330z" />
    <glyph glyph-name="Zdotaccent" unicode="&#x17b;" horiz-adv-x="528" 
d="M267 660q-17 0 -30 12.5t-13 30.5t13 30.5t30 12.5t30 -12.5t13 -30.5t-13 -30.5t-30 -12.5zM151 64h340v-64h-454l329 536h-305v64h418z" />
    <glyph glyph-name="zdotaccent" unicode="&#x17c;" horiz-adv-x="412" 
d="M214 460q-17 0 -30 12.5t-13 30.5t13 30.5t30 12.5t30 -12.5t13 -30.5t-13 -30.5t-30 -12.5zM379 400l-230 -338h230v-62h-346l230 338h-214v62h330z" />
    <glyph glyph-name="Zcaron" unicode="&#x17d;" horiz-adv-x="528" 
d="M299 652h-64l-78 148h48l62 -106l62 106h49zM151 64h340v-64h-454l329 536h-305v64h418z" />
    <glyph glyph-name="zcaron" unicode="&#x17e;" horiz-adv-x="412" 
d="M246 452h-64l-78 148h48l62 -106l62 106h49zM379 400l-230 -338h230v-62h-346l230 338h-214v62h330z" />
    <glyph glyph-name="florin" unicode="&#x192;" horiz-adv-x="368" 
d="M292 561q-31 0 -53 -20t-27 -52l-14 -89h112l-7 -48h-113l-87 -552h-56l87 552h-67l7 48h68l15 96q7 47 45 79.5t85 32.5q35 0 51 -14l-6 -47q-14 14 -40 14z" />
    <glyph glyph-name="uni01CD" unicode="&#x1cd;" horiz-adv-x="505" 
d="M285 652h-64l-78 148h48l62 -106l62 106h49zM435 0l-49 140h-267l-49 -140h-70l217 600h71l217 -600h-70zM140 201h225l-112 323z" />
    <glyph glyph-name="uni01CE" unicode="&#x1ce;" horiz-adv-x="539" 
d="M285 452h-64l-78 148h48l62 -106l62 106h49zM502 52h25v-52q-13 -8 -30 -8q-70 0 -92 69q-64 -69 -152 -69q-86 0 -147 61t-61 147t61 147t147 61t146 -60v52h62v-296q0 -26 11.5 -39t29.5 -13zM253 54q60 0 103 42.5t43 103.5t-43 103.5t-103 42.5q-61 0 -103.5 -42.5
t-42.5 -103.5t42.5 -103.5t103.5 -42.5z" />
    <glyph glyph-name="uni01CF" unicode="&#x1cf;" horiz-adv-x="219" 
d="M78 652l-78 148h48l62 -106l62 106h49l-79 -148h-64zM78 0v600h64v-600h-64z" />
    <glyph glyph-name="uni01D0" unicode="&#x1d0;" horiz-adv-x="219" 
d="M78 452l-78 148h48l62 -106l62 106h49l-79 -148h-64zM79 0v400h62v-400h-62z" />
    <glyph glyph-name="uni01D1" unicode="&#x1d1;" horiz-adv-x="715" 
d="M325 652l-78 148h48l62 -106l62 106h49l-79 -148h-64zM357 -8q-127 0 -217.5 90t-90.5 218t90.5 218t217.5 90q128 0 218 -90t90 -218t-90 -218t-218 -90zM357 56q102 0 173 71t71 173t-71 173t-173 71q-101 0 -172.5 -71t-71.5 -173t71.5 -173t172.5 -71z" />
    <glyph glyph-name="uni01D2" unicode="&#x1d2;" horiz-adv-x="506" 
d="M221 452l-78 148h48l62 -106l62 106h49l-79 -148h-64zM253 -8q-86 0 -147 61t-61 147t61 147t147 61t147 -61t61 -147t-61 -147t-147 -61zM253 54q60 0 103 42.5t43 103.5t-43 103.5t-103 42.5q-61 0 -103.5 -42.5t-42.5 -103.5t42.5 -103.5t103.5 -42.5z" />
    <glyph glyph-name="uni01D3" unicode="&#x1d3;" horiz-adv-x="591" 
d="M263 652l-78 148h48l62 -106l62 106h49l-79 -148h-64zM295 -8q-97 0 -161 58t-64 147v403h64v-393q0 -65 45.5 -108t115.5 -43t116 43t46 108v393h64v-403q0 -89 -64 -147t-162 -58z" />
    <glyph glyph-name="uni01D4" unicode="&#x1d4;" horiz-adv-x="419" 
d="M180 452l-78 148h48l62 -106l62 106h49l-79 -148h-64zM210 -8q-68 0 -109 41.5t-41 110.5v256h61v-249q0 -44 25 -70.5t64 -26.5q40 0 64.5 26.5t24.5 70.5v249h61v-256q0 -69 -41.5 -110.5t-108.5 -41.5z" />
    <glyph glyph-name="Scommaaccent" unicode="&#x218;" horiz-adv-x="438" 
d="M224 -8q-66 0 -119 33t-76 89l58 34q16 -42 52 -67t86 -25q52 0 86 26.5t34 73.5q0 35 -21.5 60.5t-54 39t-70.5 31t-70.5 34.5t-54 50.5t-21.5 78.5q0 72 48 115t119 43q50 0 92 -21t68 -54l-50 -42q-37 53 -108 53q-45 0 -75 -23t-30 -66q0 -33 21.5 -57.5t54 -37.5
t70.5 -30.5t70.5 -35.5t54 -53t21.5 -83q0 -76 -53 -121t-132 -45zM161 -189h-44l60 141h78z" />
    <glyph glyph-name="scommaaccent" unicode="&#x219;" horiz-adv-x="331" 
d="M172 -8q-48 0 -88 25.5t-51 61.5l60 24q4 -21 27.5 -35.5t51.5 -14.5t47 15t19 40q0 22 -16.5 35t-57.5 29q-57 22 -85 49.5t-28 72.5q0 52 34.5 83t81.5 31q38 0 72 -19.5t45 -46.5l-54 -28q-17 32 -60 32q-56 0 -56 -50q0 -24 15.5 -36.5t58.5 -30.5q24 -10 40 -18.5
t34.5 -22.5t28 -34t9.5 -46q0 -51 -37 -83.5t-91 -32.5zM117 -189h-44l60 141h78z" />
    <glyph glyph-name="uni021A" unicode="&#x21a;" horiz-adv-x="414" 
d="M9 600h396v-64h-166v-536h-64v536h-166v64zM108 -189l60 141h78l-94 -141h-44z" />
    <glyph glyph-name="uni021B" unicode="&#x21b;" horiz-adv-x="290" 
d="M257 340h-107v-227q0 -27 17.5 -44t42.5 -17h46v-47q-20 -13 -53 -13q-47 0 -81 33t-34 80v235h-67v60h67v174h62v-174h107v-60zM104 -189l60 141h78l-94 -141h-44z" />
    <glyph glyph-name="uni0237" unicode="&#x237;" horiz-adv-x="209" 
d="M21 -240q-33 0 -52 13v48l45 -1q25 0 42.5 17t17.5 44v519h62v-527q0 -47 -34 -80t-81 -33z" />
    <glyph glyph-name="circumflex" unicode="&#x2c6;" horiz-adv-x="51" 
d="M94 452h-48l78 148h64l79 -148h-49l-62 107z" />
    <glyph glyph-name="caron" unicode="&#x2c7;" horiz-adv-x="51" 
d="M124 452l-78 148h48l62 -106l62 106h49l-79 -148h-64z" />
    <glyph glyph-name="breve" unicode="&#x2d8;" horiz-adv-x="53" 
d="M237 453q-57 0 -94 33.5t-37 88.5h39q0 -34 26.5 -58t65.5 -24q40 0 66.5 24t26.5 58h39q0 -55 -37 -88.5t-95 -33.5z" />
    <glyph glyph-name="dotaccent" unicode="&#x2d9;" horiz-adv-x="51" 
d="M122 460q-17 0 -30 12.5t-13 30.5t13 30.5t30 12.5t30 -12.5t13 -30.5t-13 -30.5t-30 -12.5z" />
    <glyph glyph-name="ring" unicode="&#x2da;" horiz-adv-x="52" 
d="M81 438q-34 0 -59 24.5t-25 58.5t24.5 58.5t59.5 24.5q34 0 58 -24.5t24 -58.5t-24 -58.5t-58 -24.5zM81 472q20 0 34 14t14 35q0 20 -14.5 35t-33.5 15q-21 0 -35 -14.5t-14 -35.5t14 -35t35 -14z" />
    <glyph glyph-name="ogonek" unicode="&#x2db;" horiz-adv-x="51" 
d="M132 -207q-41 2 -65 23.5t-24 59.5q0 40 28.5 71t83.5 64l33 -11q-49 -29 -75 -55.5t-26 -63.5q0 -24 14 -39t40 -15q47 0 75 37l22 -31q-45 -43 -106 -40z" />
    <glyph glyph-name="tilde" unicode="&#x2dc;" horiz-adv-x="55" 
d="M217 491q-43 0 -73 44q-13 22 -33 22q-19 0 -29.5 -17.5t-10.5 -44.5h-46q0 47 23 77.5t61 30.5q42 0 73 -44q16 -22 35 -22q39 0 39 62h46q0 -47 -22.5 -77.5t-62.5 -30.5z" />
    <glyph glyph-name="hungarumlaut" unicode="&#x2dd;" horiz-adv-x="51" 
d="M8 452l88 148h72l-118 -148h-42z" />
    <glyph glyph-name="gravecomb" unicode="&#x300;" 
d="M-20 452h-42l-118 148h72z" />
    <glyph glyph-name="acutecomb" unicode="&#x301;" 
d="M-196 452l88 148h72l-118 -148h-42z" />
    <glyph glyph-name="uni0302" unicode="&#x302;" 
d="M-218 452h-48l78 148h64l79 -148h-49l-62 107z" />
    <glyph glyph-name="tildecomb" unicode="&#x303;" 
d="M-111 491q-43 0 -73 44q-13 22 -33 22q-19 0 -29.5 -17.5t-10.5 -44.5h-46q0 47 23 77.5t61 30.5q42 0 73 -44q16 -22 35 -22q39 0 39 62h46q0 -47 -22.5 -77.5t-62.5 -30.5z" />
    <glyph glyph-name="uni0304" unicode="&#x304;" 
d="M-263 483v42h215v-42h-215z" />
    <glyph glyph-name="uni0306" unicode="&#x306;" 
d="M-277 453q-57 0 -94 33.5t-37 88.5h39q0 -34 26.5 -58t65.5 -24q40 0 66.5 24t26.5 58h39q0 -55 -37 -88.5t-95 -33.5z" />
    <glyph glyph-name="uni0307" unicode="&#x307;" 
d="M-122 460q-17 0 -30 12.5t-13 30.5t13 30.5t30 12.5t30 -12.5t13 -30.5t-13 -30.5t-30 -12.5z" />
    <glyph glyph-name="uni0308" unicode="&#x308;" 
d="M-244 475q-18 0 -31 12.5t-13 29.5q0 18 13 30.5t31 12.5t30.5 -12.5t12.5 -30.5q0 -17 -13 -29.5t-30 -12.5zM-99 475q-17 0 -30 12.5t-13 29.5q0 18 12.5 30.5t30.5 12.5t30.5 -12t12.5 -31q0 -17 -12.5 -29.5t-30.5 -12.5z" />
    <glyph glyph-name="uni030A" unicode="&#x30a;" 
d="M-79 438q-34 0 -59 24.5t-25 58.5t24.5 58.5t59.5 24.5q34 0 58 -24.5t24 -58.5t-24 -58.5t-58 -24.5zM-79 472q20 0 34 14t14 35q0 20 -14.5 35t-33.5 15q-21 0 -35 -14.5t-14 -35.5t14 -35t35 -14z" />
    <glyph glyph-name="uni030B" unicode="&#x30b;" 
d="M-150 452l87 148h72l-117 -148h-42zM-20 452l87 148h72l-117 -148h-42z" />
    <glyph glyph-name="uni030C" unicode="&#x30c;" 
d="M-188 452l-78 148h48l62 -106l62 106h49l-79 -148h-64z" />
    <glyph glyph-name="uni0312" unicode="&#x312;" 
d="M-61 663h44l-60 -141h-78z" />
    <glyph glyph-name="dotbelowcomb" unicode="&#x323;" 
d="M-74 -200q-17 0 -30 12.5t-13 30.5q0 17 13 30t30 13t30 -13t13 -30q0 -18 -13 -30.5t-30 -12.5z" />
    <glyph glyph-name="uni0326" unicode="&#x326;" 
d="M-139 -101h-44l60 141h78z" />
    <glyph glyph-name="uni0327" unicode="&#x327;" 
d="M-113 -208q-27 0 -54 15t-38 37l34 14q9 -12 26 -20.5t32 -8.5q19 0 32 13.5t13 32.5q0 27 -23 37.5t-56 -2.5l-30 20l35 70h38l-26 -53q41 8 70 -13t29 -59q0 -35 -23.5 -59t-58.5 -24z" />
    <glyph glyph-name="uni0328" unicode="&#x328;" 
d="M-112 -207q-41 2 -65 23.5t-24 59.5q0 40 28.5 71t83.5 64l33 -11q-49 -29 -75 -55.5t-26 -63.5q0 -24 14 -39t40 -15q47 0 75 37l22 -31q-45 -43 -106 -40z" />
    <glyph glyph-name="uni0335" unicode="&#x335;" 
d="M-375 180v60h232v-60h-232z" />
    <glyph glyph-name="uni0336" unicode="&#x336;" 
d="M-602 186v44h570v-44h-570z" />
    <glyph glyph-name="uni0337" unicode="&#x337;" 
d="M-367 104l213 227l35 -29l-214 -227z" />
    <glyph glyph-name="uni0338" unicode="&#x338;" 
d="M-497 -6l448 642l46 -30l-447 -641z" />
    <glyph glyph-name="uni0394" unicode="&#x394;" horiz-adv-x="596" 
d="M334 600l240 -600h-70h-446h-37l241 600h72zM113 57h369l-184 470z" />
    <glyph glyph-name="uni03A9" unicode="&#x3a9;" horiz-adv-x="725" 
d="M55 0v46h138v6q-54 41 -89.5 109.5t-35.5 151.5q0 123 84.5 205.5t212.5 82.5t209.5 -85t81.5 -201q0 -84 -37.5 -155t-88.5 -108v-6h139v-46h-231v34q65 33 111 105t46 167q-1 96 -63 172t-167 76q-104 0 -169.5 -72.5t-65.5 -177.5q0 -92 46 -165t109 -105v-34h-230z
" />
    <glyph glyph-name="uni03BC" unicode="&#x3bc;" horiz-adv-x="503" 
d="M356 400h61v-400h-61v62q-47 -70 -129 -70q-63 0 -108 43v-235h-48v600h62v-243q0 -46 32 -78t78 -32q47 0 80 32t33 78v243z" />
    <glyph glyph-name="pi" unicode="&#x3c0;" horiz-adv-x="567" 
d="M70 0q26 65 46.5 178.5t24.5 209.5q-83 0 -116 -12l-7 36q42 23 133 23h388l-5 -47h-82v-259q0 -90 13 -129h-58q-14 25 -14 121v267l-193 1q-4 -91 -25.5 -212.5t-46.5 -176.5h-58z" />
    <glyph glyph-name="Wgrave" unicode="&#x1e80;" horiz-adv-x="809" 
d="M431 652h-42l-118 148h72zM749 600h66l-187 -600h-67l-157 532l-154 -532h-68l-188 600h68l153 -492l144 492h65h25l146 -493z" />
    <glyph glyph-name="wgrave" unicode="&#x1e81;" horiz-adv-x="642" 
d="M347 452h-42l-118 148h72zM566 400h67l-137 -400h-68l-106 314l-107 -314h-68l-138 400h70l104 -326l109 326h59l109 -328z" />
    <glyph glyph-name="Wacute" unicode="&#x1e82;" horiz-adv-x="809" 
d="M541 800l-118 -148h-42l88 148h72zM749 600h66l-187 -600h-67l-157 532l-154 -532h-68l-188 600h68l153 -492l144 492h65h25l146 -493z" />
    <glyph glyph-name="wacute" unicode="&#x1e83;" horiz-adv-x="642" 
d="M457 600l-118 -148h-42l88 148h72zM566 400h67l-137 -400h-68l-106 314l-107 -314h-68l-138 400h70l104 -326l109 326h59l109 -328z" />
    <glyph glyph-name="Wdieresis" unicode="&#x1e84;" horiz-adv-x="809" 
d="M334 675q-18 0 -31 12.5t-13 29.5q0 18 13 30.5t31 12.5t30.5 -12.5t12.5 -30.5q0 -17 -13 -29.5t-30 -12.5zM479 675q-17 0 -30 12.5t-13 29.5q0 18 12.5 30.5t30.5 12.5t30.5 -12t12.5 -31q0 -17 -12.5 -29.5t-30.5 -12.5zM749 600h66l-187 -600h-67l-157 532
l-154 -532h-68l-188 600h68l153 -492l144 492h65h25l146 -493z" />
    <glyph glyph-name="wdieresis" unicode="&#x1e85;" horiz-adv-x="642" 
d="M250 475q-18 0 -31 12.5t-13 29.5q0 18 13 30.5t31 12.5t30.5 -12.5t12.5 -30.5q0 -17 -13 -29.5t-30 -12.5zM395 475q-17 0 -30 12.5t-13 29.5q0 18 12.5 30.5t30.5 12.5t30.5 -12t12.5 -31q0 -17 -12.5 -29.5t-30.5 -12.5zM566 400h67l-137 -400h-68l-106 314
l-107 -314h-68l-138 400h70l104 -326l109 326h59l109 -328z" />
    <glyph glyph-name="Ygrave" unicode="&#x1ef2;" horiz-adv-x="485" 
d="M268 652h-42l-118 148h72zM484 600l-209 -315v-285h-64v284l-210 316h80l162 -249l162 249h79z" />
    <glyph glyph-name="ygrave" unicode="&#x1ef3;" horiz-adv-x="409" 
d="M230 452h-42l-118 148h72zM330 400h70l-172 -430l-85 -210h-66l96 237l-164 403h69l128 -328z" />
    <glyph glyph-name="endash" unicode="&#x2013;" horiz-adv-x="481" 
d="M40 178v60h400v-60h-400z" />
    <glyph glyph-name="emdash" unicode="&#x2014;" horiz-adv-x="800" 
d="M0 178v60h800v-60h-800z" />
    <glyph glyph-name="quoteleft" unicode="&#x2018;" horiz-adv-x="166" 
d="M108 608h45l-65 -241h-71z" />
    <glyph glyph-name="quoteright" unicode="&#x2019;" horiz-adv-x="132" 
d="M78 367h-45l65 241h71z" />
    <glyph glyph-name="quotesinglbase" unicode="&#x201a;" horiz-adv-x="170" 
d="M63 -155h-45l65 241h71z" />
    <glyph glyph-name="quotedblleft" unicode="&#x201c;" horiz-adv-x="312" 
d="M114 608h45l-65 -241h-71zM255 608h45l-65 -241h-71z" />
    <glyph glyph-name="quotedblright" unicode="&#x201d;" horiz-adv-x="316" 
d="M204 367h-45l65 241h71zM59 366h-45l65 241h71z" />
    <glyph glyph-name="quotedblbase" unicode="&#x201e;" horiz-adv-x="301" 
d="M62 -155h-45l65 241h71zM197 -155h-45l65 241h71z" />
    <glyph glyph-name="dagger" unicode="&#x2020;" horiz-adv-x="543" 
d="M431 377v-43h-140v-470h-43v470h-137v43h137v159h43v-159h140z" />
    <glyph glyph-name="daggerdbl" unicode="&#x2021;" horiz-adv-x="543" 
d="M431 334h-140v-265h140v-42h-140v-163h-43v163h-137v42h137v265h-137v43h137v159h43v-159h140v-43z" />
    <glyph glyph-name="bullet" unicode="&#x2022;" horiz-adv-x="463" 
d="M232 127q-56 0 -96.5 40t-40.5 97q0 56 40.5 96.5t96.5 40.5q55 0 95.5 -41t40.5 -96q0 -57 -40.5 -97t-95.5 -40z" />
    <glyph glyph-name="ellipsis" unicode="&#x2026;" horiz-adv-x="606" 
d="M95 -8q-22 0 -38.5 16.5t-16.5 38.5t16.5 38.5t38.5 16.5q23 0 39 -16t16 -39t-16 -39t-39 -16zM312 -8q-22 0 -38.5 16.5t-16.5 38.5t16.5 38.5t38.5 16.5t38.5 -16t16.5 -39t-16.5 -39t-38.5 -16zM534 -8q-22 0 -38.5 16.5t-16.5 38.5t16.5 38.5t38.5 16.5t38.5 -16
t16.5 -39t-16.5 -39t-38.5 -16z" />
    <glyph glyph-name="perthousand" unicode="&#x2030;" horiz-adv-x="850" 
d="M159 360q-45 0 -76.5 36t-31.5 87q0 52 31.5 88.5t76.5 36.5q44 0 75.5 -36.5t31.5 -88.5q0 -51 -31.5 -87t-75.5 -36zM61 0l412 600h65l-412 -600h-65zM159 408q24 0 41.5 22t17.5 53q0 32 -17.5 54.5t-41.5 22.5t-41.5 -22.5t-17.5 -54.5q0 -31 17.5 -53t41.5 -22z
M441 -8q-45 0 -76.5 36.5t-31.5 88.5q0 51 31.5 87t76.5 36t76 -36t31 -87q0 -52 -31 -88.5t-76 -36.5zM696 -8q-45 0 -76.5 36.5t-31.5 88.5q0 51 31.5 87t76.5 36t76 -36t31 -87q0 -52 -31 -88.5t-76 -36.5zM441 40q23 0 40.5 22.5t17.5 54.5q0 31 -17 53t-41 22
t-41.5 -22t-17.5 -53q0 -32 17.5 -54.5t41.5 -22.5zM696 40q24 0 41 22.5t17 54.5q0 31 -17 53t-41 22t-41.5 -22t-17.5 -53q0 -32 17.5 -54.5t41.5 -22.5z" />
    <glyph glyph-name="guilsinglleft" unicode="&#x2039;" horiz-adv-x="285" 
d="M169 76l-121 147l121 147h54l-122 -147l122 -147h-54z" />
    <glyph glyph-name="guilsinglright" unicode="&#x203a;" horiz-adv-x="285" 
d="M63 76l121 147l-121 147h53l122 -147l-122 -147h-53z" />
    <glyph glyph-name="fraction" unicode="&#x2044;" horiz-adv-x="437" 
d="M-15 0l418 600h50l-419 -600h-49z" />
    <glyph glyph-name="Euro" unicode="&#x20ac;" horiz-adv-x="625" 
d="M371 56q98 0 169 69v-81q-81 -52 -169 -52q-102 0 -182 58.5t-110 151.5h-70l36 57h21q-3 19 -3 41q0 12 2 38h-56l40 56h28q30 95 111 154.5t183 59.5q87 0 164 -49l-20 -63q-63 48 -144 48q-76 0 -137 -41.5t-89 -108.5l337 -1l-57 -56l-295 1q-3 -20 -3 -38
q0 -22 3 -41l309 -2l-53 -56l-239 1q29 -66 89 -106t135 -40z" />
    <glyph glyph-name="uni2113" unicode="&#x2113;" horiz-adv-x="496" 
d="M271 -4q-74 0 -113.5 44.5t-44.5 110.5v9q-10 -6 -29 -21t-28 -21l-20 37q11 9 37 29t39 31v235q0 109 42.5 158t104.5 49q59 0 89.5 -40.5t30.5 -100.5q0 -77 -52.5 -154t-152.5 -165v-22q0 -63 33 -95.5t78 -32.5q44 0 80 27.5t57 64.5l31 -27q-65 -116 -182 -116z
M174 258q75 73 115.5 134t40.5 121q0 97 -72 97q-33 0 -58.5 -36.5t-25.5 -115.5v-200z" />
    <glyph glyph-name="trademark" unicode="&#x2122;" horiz-adv-x="651" 
d="M39 565v35h192v-35h-77v-246h-39v246h-76zM528 600h42v-281h-38v221l-105 -158l-105 155v-218h-39v281h42l102 -151z" />
    <glyph glyph-name="estimated" unicode="&#x212e;" horiz-adv-x="761" 
d="M380 -7q-142 0 -242 89.5t-100 216.5q0 128 100 218.5t242 90.5t242 -90.5t100 -218.5v-8h-554q-4 0 -4 -3v-168q0 -10 7 -19q88 -91 209 -91q134 0 221 102h49q-47 -55 -118 -87t-152 -32zM168 308h425q3 0 3 6v168q0 13 -8 20q-90 88 -208 88q-119 0 -208 -91
q-8 -8 -8 -21v-164q0 -6 4 -6z" />
    <glyph glyph-name="partialdiff" unicode="&#x2202;" horiz-adv-x="435" 
d="M144 564q103 13 174 -74.5t70 -227.5q0 -108 -54.5 -182t-133.5 -74q-94 0 -132 67.5t0 166.5q33 91 105.5 126t147.5 -1q-20 81 -68 124t-109 29v46zM333 262q0 27 -3 51q-64 42 -122 18t-89 -105q-28 -74 -4 -125.5t85 -51.5q54 0 93 62.5t40 150.5z" />
    <glyph glyph-name="emptyset" unicode="&#x2205;" horiz-adv-x="668" 
d="M513 392q60 -70 60 -159q0 -99 -70 -169t-169 -70q-89 0 -159 60l-34 -34l-20 20l34 34q-60 70 -60 159q0 99 70 169t169 70q89 0 159 -60l34 34l20 -20zM146 233q0 -70 45 -123l266 266q-53 45 -123 45q-79 0 -133.5 -54.5t-54.5 -133.5zM334 44q79 0 134 55t55 134
q0 71 -46 123l-266 -266q52 -46 123 -46z" />
    <glyph glyph-name="product" unicode="&#x220f;" horiz-adv-x="603" 
d="M557 562v-45h-61v-613h-45v613h-298v-613h-46v613h-60v45h510z" />
    <glyph glyph-name="summation" unicode="&#x2211;" horiz-adv-x="614" 
d="M79 -94v34l297 294l-297 293v35h456v-48h-373l279 -280l-279 -281h373v-48z" />
    <glyph glyph-name="minus" unicode="&#x2212;" horiz-adv-x="508" 
d="M55 202v61h399v-61h-399z" />
    <glyph glyph-name="radical" unicode="&#x221a;" horiz-adv-x="593" 
d="M208 -62l-93 284h-52v42h83l83 -253l286 598l39 -17l-314 -654h-32z" />
    <glyph glyph-name="infinity" unicode="&#x221e;" horiz-adv-x="621" 
d="M164 118q-46 0 -76.5 32.5t-32.5 82.5q2 49 32.5 82t76.5 33q70 0 147 -83q75 83 146 83q47 0 77.5 -32t31.5 -83q-1 -51 -31.5 -83t-77.5 -32q-71 0 -146 83q-77 -83 -147 -83zM164 160q53 0 118 73q-66 72 -118 72q-27 0 -46.5 -21t-20.5 -51q1 -31 20.5 -52t46.5 -21z
M457 160q27 0 46 21t21 52q-1 31 -20.5 51.5t-46.5 20.5q-54 0 -118 -72q64 -73 118 -73z" />
    <glyph glyph-name="integral" unicode="&#x222b;" horiz-adv-x="383" 
d="M91 -151q-32 0 -48 23.5t-4 60.5h43q-7 -39 17 -39q23 0 25 24l97 606q4 30 27.5 49.5t51.5 19.5q32 0 47.5 -24t3.5 -60h-42q6 39 -17 39q-22 0 -27 -24l-96 -606q-4 -30 -27 -49.5t-51 -19.5z" />
    <glyph glyph-name="approxequal" unicode="&#x2248;" horiz-adv-x="490" 
d="M331 255q-24 0 -46.5 11t-32.5 21t-26 28q-34 37 -63 37q-31 0 -50 -25t-17 -63h-45q-2 59 29.5 96t83.5 37q31 0 52.5 -14t46.5 -44q32 -40 64 -40q30 0 49 24.5t18 63.5h45q2 -56 -28.5 -94t-79.5 -38zM331 97q-24 0 -46.5 11t-32 20.5t-26.5 28.5q-34 37 -63 37
q-31 0 -50 -25.5t-17 -62.5h-45q-2 59 29.5 96t83.5 37q31 0 52.5 -14t46.5 -44q31 -40 64 -40q30 0 49 24.5t18 63.5h45q2 -57 -28.5 -94.5t-79.5 -37.5z" />
    <glyph glyph-name="notequal" unicode="&#x2260;" horiz-adv-x="590" 
d="M535 266h-165l-93 -108h258v-43h-295l-96 -112h-41l96 112h-144v43h181l92 108h-273v43h310l80 94h42l-81 -94h129v-43z" />
    <glyph glyph-name="lessequal" unicode="&#x2264;" horiz-adv-x="647" 
d="M544 548v-53l-389 -184l389 -184v-54l-441 210v56zM103 0v39h441v-39h-441z" />
    <glyph glyph-name="greaterequal" unicode="&#x2265;" horiz-adv-x="647" 
d="M103 548l441 -209v-56l-441 -210v54l389 184l-389 184v53zM103 0v39h441v-39h-441z" />
    <glyph glyph-name="lozenge" unicode="&#x25ca;" horiz-adv-x="641" 
d="M320 42l-241 240l241 242l241 -241zM321 112l170 171l-170 171l-171 -172z" />
    <glyph glyph-name="uniF8FF" unicode="&#xf8ff;" horiz-adv-x="766" 
d="M383 0q-125 0 -214.5 89.5t-89.5 214.5q0 126 89.5 215t214.5 89q126 0 215 -89t89 -215q0 -125 -89 -214.5t-215 -89.5zM383 29q114 0 194.5 81t80.5 194q0 114 -80.5 194.5t-194.5 80.5q-113 0 -194 -80.5t-81 -194.5q0 -113 81 -194t194 -81zM542 174q-6 0 -10 4
l-116 116q-9 11 0 20l116 116q11 11 20 0q4 -4 4 -10t-4 -10l-105 -106l105 -106q9 -7 0 -20q-3 -4 -10 -4zM224 174q-15 0 -15 14v232q0 14 15 14q14 0 14 -14v-232q0 -14 -14 -14zM383 174q-15 0 -15 14v232q0 14 15 14q14 0 14 -14v-232q0 -14 -14 -14zM267 290
q-15 0 -15 14t15 14h73q14 0 14 -14t-14 -14h-73z" />
    <glyph glyph-name="i.loclTRK" horiz-adv-x="219" 
d="M110 460q-17 0 -30 12.5t-13 30.5t13 30.5t30 12.5t30 -12.5t13 -30.5t-13 -30.5t-30 -12.5zM79 0v400h62v-400h-62z" />
    </font>
</defs>
</svg>
